Ивановский Торрент трекер
Яндекс.Погода
 

[Цитировать]
HUNTER

-Код апокалипсиса- Год выпуска: 2007
Страна: Россия
Жанр: боевик, приключения
Продолжительность: 01:50:01.397
Перевод: Не требуется
Русские субтитры: есть
Режиссер: Вадим Шмелев
В ролях: Анастасия Заворотнюк, Венсан Перес, Владимир Меньшов, Алексей Серебряков, Олег Штефанко, Оскар Кучера, Сергей Газаров, Борис Токарев, Георгий Тесля-Герасимов, Анжелика Асланян, Александр Цуркан, Анатолий Котенев, Сергей Перебоев
Описание: Террорист № 1 Джаффад Бен Зайиди похитил с затонувшей американской подлодки четыре ядерные боеголовки, спрятав их в крупнейших мегаполисах мира. Заряд активируется одиннадцатизначным кодом, узнать который можно лишь собрав воедино цифры, известные трем приближенным Джаффада, которых никто не видел в лицо.
Но террориста убивают при странных обстоятельствах, а его бывший напарник по прозвищу Палач намерен привести бомбы в действие. По его следу пускаются объединившие усилия ФСБ и ЦРУ, чей агент Мари несколько лет назад внедрилась в группировку Джаффада. Теперь под новой легендой ей предстоит спасти мир.
Доп. информация: Рип HqF [imdb] [kinopoisk]
Качество: BDRip 1080p
Формат: MKV
Видео: 1920x818 (OAR); x264; 23.976 fps; 8933 kbps
Аудио: dts 6ch 24 bits 1509 kbps (из: dts-hd 6ch 24 bits 2045 kbps)
Субтитры: rus (subtitry.ru), eng (с bd)

x264 2pass (log)

---[NoImage] x264 [info]: 1920x818 @ 23.98 fps
---[NoImage] x264 [info]: using SAR=1/1
---[NoImage] x264 [info]: using cpu capabilities: MMX2 SSE2Fast SSSE3 FastShuffle SSE4.1 Cache64
---[NoImage] x264 [info]: profile High, level 4.1
---[NoImage] x264 [info]: frame I:1369 Avg QP:15.56 size:162077
---[NoImage] x264 [info]: frame P:46284 Avg QP:17.50 size: 75228
---[NoImage] x264 [info]: frame B:110621 Avg QP:19.60 size: 33146
---[NoImage] x264 [info]: consecutive B-frames: 2.6% 3.6% 20.2% 73.6%
---[NoImage] x264 [info]: mb I I16..4: 5.4% 86.4% 8.2%
---[NoImage] x264 [info]: mb P I16..4: 1.2% 12.3% 0.8% P16..4: 36.0% 28.5% 13.4% 0.0% 0.0% skip: 7.8%
---[NoImage] x264 [info]: mb B I16..4: 0.1% 1.1% 0.1% B16..8: 61.2% 2.0% 3.0% direct: 7.9% skip:24.6% L0:46.5% L1:46.7% BI: 6.8%
---[NoImage] x264 [info]: 8x8 transform intra:86.0% inter:65.1%
---[NoImage] x264 [info]: direct mvs spatial:98.6% temporal:1.4%
---[NoImage] x264 [info]: coded y,uvDC,uvAC intra: 88.3% 82.4% 58.3% inter: 40.5% 33.7% 6.2%
---[NoImage] x264 [info]: i16 v,h,dc,p: 59% 11% 7% 23%
---[NoImage] x264 [info]: i8 v,h,dc,ddl,ddr,vr,hd,vl,hu: 12% 9% 8% 10% 13% 12% 13% 11% 12%
---[NoImage] x264 [info]: i4 v,h,dc,ddl,ddr,vr,hd,vl,hu: 26% 8% 5% 8% 12% 11% 12% 9% 10%
---[NoImage] x264 [info]: Weighted P-Frames: Y:7.6%
---[NoImage] x264 [info]: ref P L0: 44.9% 24.2% 20.4% 8.5% 1.9% 0.1%
---[NoImage] x264 [info]: ref B L0: 77.8% 17.5% 4.7%
---[NoImage] x264 [info]: ref B L1: 90.2% 9.8%

screenshots:

source --> hq-films (P-frames)






source --> hq-films (B-frames)






mediainfo

General
Complete name : F:\Kod.apokalipsisa.2007.1080p.BluRay.dts.x264-HqF.mkv
Format : Matroska
File size : 8.03 GiB
Duration : 1h 50mn
Overall bit rate : 10.4 Mbps
Encoded date : UTC 2010-01-28 17:13:48
Writing application : mkvmerge v3.0.0 ('Hang up your Hang-Ups') built on Dec 12 2009 15:20:35
Writing library : libebml v0.7.9 + libmatroska v0.8.1
Video
ID : 1
Format : AVC
Format/Info : Advanced Video Codec
Format profile : High@L4.1
Format settings, CABAC : Yes
Format settings, ReFrames : 4 frames
Muxing mode : Container profile=Unknown@4.1
Codec ID : V_MPEG4/ISO/AVC
Duration : 1h 49mn
Bit rate : 8 726 Kbps
Nominal bit rate : 8 933 Kbps
Width : 1 920 pixels
Height : 818 pixels
Display aspect ratio : 2.35:1
Frame rate : 23.976 fps
Resolution : 8 bits
Colorimetry : 4:2:0
Scan type : Progressive
Bits/(Pixel*Frame) : 0.232
Stream size : 6.70 GiB (83%)
Title : Код апокалипсиса 2007 1080p BluRay dts x264-HqF
Writing library : x264 core 80 r1376M 3feaec2
Encoding settings : cabac=1 / ref=4 / deblock=1:-3:-3 / analyse=0x3:0x113 / me=umh / subme=10 / psy=1 / psy_rd=0.9:0.0 / mixed_ref=1 / me_range=32 / chroma_me=1 / trellis=2 / 8x8dct=1 / cqm=0 / deadzone=21,11 / fast_pskip=0 / chroma_qp_offset=-3 / threads=6 / sliced_threads=0 / nr=0 / decimate=1 / mbaff=0 / constrained_intra=0 / bframes=3 / b_pyramid=2 / b_adapt=2 / b_bias=0 / direct=3 / wpredb=1 / wpredp=2 / keyint=250 / keyint_min=25 / scenecut=40 / rc=2pass / mbtree=0 / bitrate=8933 / ratetol=1.0 / qcomp=0.60 / qpmin=10 / qpmax=51 / qpstep=4 / cplxblur=20.0 / qblur=0.5 / ip_ratio=1.40 / pb_ratio=1.30 / aq=1:0.80
Language : Russian
Audio
ID : 2
Format : DTS
Format/Info : Digital Theater Systems
Codec ID : A_DTS
Duration : 1h 50mn
Bit rate mode : Constant
Bit rate : 1 510 Kbps
Channel(s) : 6 channels
Channel positions : Front: L C R, Surround: L R, LFE
Sampling rate : 48.0 KHz
Resolution : 24 bits
Stream size : 1.16 GiB (14%)
Title : dts 6ch 24 bits 1509 kbps
Language : Russian
Text #1
ID : 3
Format : UTF-8
Codec ID : S_TEXT/UTF8
Codec ID/Info : UTF-8 Plain Text
Language : Russian
Text #2
ID : 4
Format : UTF-8
Codec ID : S_TEXT/UTF8
Codec ID/Info : UTF-8 Plain Text
Language : English
Показать сообщения:    

Текущее время: 19-Окт 11:55

Часовой пояс: UTC - 1


Вы не можете начинать темы
Вы не можете отвечать на сообщения
Вы не можете редактировать свои сообщения
Вы не можете удалять свои сообщения
Вы не можете голосовать в опросах
Вы не можете прикреплять файлы к сообщениям
Вы не можете скачивать файлы

!ВНИМАНИЕ!
Сайт не предоставляет электронные версии произведений, а занимается лишь коллекционированием и каталогизацией ссылок, присылаемых и публикуемых на форуме нашими читателями. Если вы являетесь правообладателем какого-либо представленного материала и не желаете, чтобы ссылка на него находилась в нашем каталоге, свяжитесь с нами, и мы незамедлительно удалим ее. Файлы для обмена на трекере предоставлены пользователями сайта, и администрация не несет ответственности за их содержание. Просьба не заливать файлы, защищенные авторскими правами, а также файлы нелегального содержания!