Важное объявление!
У Нас Все раздачи мультитрекерные, при нуле пиров в релизах, можете смело вставать на закачку!
 
Автор Сообщение

HUNTER

Стаж:
4 года 9 месяцев
Сообщений:
65033

Репутация: 101

[+] [-]
Вне форума [Профиль] [ЛС]

Когда тебе 17 лет / Quand on a 17 ans / Being 17
Страна: Франция
Жанр: Драма
Год выпуска: 2016
Продолжительность: 01:49:16
Перевод: Одноголосый закадровый Kirill Ivanov
Субтитры: Русские (SRT)
Режиссер: Андре Тешине / Andre Techine
В ролях: Сандрин Киберлан, Кейси Мотте Кляйн, Корентон Филя, Алекси Лоре, Жан Форнеро, Мама Прассино, Жан Корсо и др.
Описание: 17-летний Дамьен живет с родителями в Пиренейском предгорье.
Мать Дамьена Марианна работает врачом, а его отец летчик, находится в горячей точке на Ближнем востоке.
Дамьен хорошо учится, но в лицее у него возникает конфликт с парнем по имени Том, который живет с родителями фермерами в горах.
На время, пока мать Тома лежит в больнице, мать Дамьена решает пригласить Тома пожить у них какое-то время...

СЕМПЛ
Качество видео: WEB-DL 720p
Формат видео: MKV
Видео: AVC; 960х718 (1280@718); 25 fps; ~3868 kbps
Аудио 1: AC3, 48 kHz, 5.1 (Front: L C R, Side: L R, LFE), ~448 kbps | VO - Русский
Аудио 2: AC3, 48 kHz, 5.1 (Front: L C R, Side: L R, LFE), ~384 kbps | Original - French

MediaInfo

Общее
Полное имя : Quand on a 17 ans (2016) K_I.mkv
Формат : Matroska
Версия формата : Version 4 / Version 2
Размер файла : 3,59 Гбайт
Продолжительность : 1 ч. 49 м.
Общий поток : 4702 Кбит/сек
Название фильма : Quand on a 17 ans (2016) K_I
Дата кодирования : UTC 2016-09-22 23:13:23
Программа кодирования : mkvmerge v8.3.0 ('Over the Horizon') 64bit
Библиотека кодирования : libebml v1.3.1 + libmatroska v1.4.2
Видео
Идентификатор : 1
Формат : AVC
Формат/Информация : Advanced Video Codec
Профиль формата : Main@L3.1
Параметр CABAC формата : Нет
Параметр ReFrames формата : 2 кадра
Идентификатор кодека : V_MPEG4/ISO/AVC
Продолжительность : 1 ч. 49 м.
Битрейт : 3868 Кбит/сек
Ширина : 960 пикселей
Высота : 718 пикселей
Соотношение сторон : 16:9
Режим частоты кадров : Постоянный
Частота кадров : 25,000 кадров/сек
Цветовое пространство : YUV
Субдискретизация насыщенности : 4:2:0
Битовая глубина : 8 бит
Тип развёртки : Прогрессивная
Бит/(Пиксели*Кадры) : 0.224
Размер потока : 2,95 Гбайт (82%)
Default : Да
Forced : Нет
Цветовой диапазон : Limited
Основные цвета : BT.709
Характеристики трансфера : BT.709
Коэффициенты матрицы : BT.709
Аудио #1
Идентификатор : 2
Формат : AC-3
Формат/Информация : Audio Coding 3
Расширение режима : CM (complete main)
Параметр Endianness формата : Big
Идентификатор кодека : A_AC3
Продолжительность : 1 ч. 49 м.
Вид битрейта : Постоянный
Битрейт : 448 Кбит/сек
Каналы : 6 каналов
Расположение каналов : Front: L C R, Side: L R, LFE
Частота : 48,0 КГц
Частота кадров : 31,250 кадров/сек (1536 spf)
Метод сжатия : С потерями
Размер потока : 350 Мбайт (10%)
Язык : Russian
Default : Да
Forced : Нет
Аудио #2
Идентификатор : 3
Формат : AC-3
Формат/Информация : Audio Coding 3
Расширение режима : CM (complete main)
Параметр Endianness формата : Big
Идентификатор кодека : A_AC3
Продолжительность : 1 ч. 49 м.
Вид битрейта : Постоянный
Битрейт : 384 Кбит/сек
Каналы : 6 каналов
Расположение каналов : Front: L C R, Side: L R, LFE
Частота : 48,0 КГц
Частота кадров : 31,250 кадров/сек (1536 spf)
Метод сжатия : С потерями
Размер потока : 300 Мбайт (8%)
Язык : French
Default : Нет
Forced : Нет
Текст
Идентификатор : 4
Формат : UTF-8
Идентификатор кодека : S_TEXT/UTF8
Идентификатор кодека/Информация : UTF-8 Plain Text
Продолжительность : 1 ч. 45 м.
Битрейт : 60 бит/сек
Count of elements : 777
Размер потока : 47,2 Кбайт (0%)
Язык : Russian
Default : Нет
Forced : Нет
Меню
00:00:00.000 : en:Chapter 01
00:11:00.000 : en:Chapter 02
00:22:00.000 : en:Chapter 03
00:33:00.000 : en:Chapter 04
00:44:00.000 : en:Chapter 05
00:55:00.000 : en:Chapter 06
01:06:00.000 : en:Chapter 07
01:17:00.000 : en:Chapter 08
01:28:00.000 : en:Chapter 09
01:39:00.000 : en:Chapter 10

Скриншот с названием фильма

Скриншоты - кликните по картинке для увеличения





_________________
Показать сообщения:    

Текущее время: Сегодня 04:24

Часовой пояс: GMT



Вы не можете начинать темы
Вы не можете отвечать на сообщения
Вы не можете редактировать свои сообщения
Вы не можете удалять свои сообщения
Вы не можете голосовать в опросах
Вы не можете прикреплять файлы к сообщениям
Вы не можете скачивать файлы