Когда солнце было богом / Stara basn. Kiedy slonce bylo bogiem (Ежи Гоффман) [2003 г., Исторический, драма, фэнтези, DVDRip] MVO :: Ивановский Торрент трекер
Важное объявление!
У Нас Все раздачи мультитрекерные, при нуле пиров в релизах, можете смело вставать на закачку!
 
Автор Сообщение

mihis

[Профиль] [ЛС]

Когда солнце было богом / Stara basn. Kiedy slonce bylo bogiem
Год выпуска: 2003
Страна: Польша
Жанр: Исторический, драма, фэнтези
Продолжительность: 01:42:45
Перевод: Профессиональный (многоголосый, закадровый)
Субтитры: Нет
Режиссер: Ежи Гоффман
В ролях: Михал Жебровский, Марина Александрова, Малгожата Форемняк, Даниэль Ольбрыхский, Богдан Ступка, Анна Дымна, Эва Висьневска, Мачей Козловский, Ежи Треля, Анджей Печиньский
Описание: Действие происходит в Европе, в 9 веке. Многочисленные славянские племена живут на землях, которые в наши дни являются Польшей. Каждое племя поклоняется собственным богам. Жестокий князь, Попел (по легендам, съеденный мышами), и его коварная жена, бывшая невольница, делают все возможное, чтобы передать титул своему сыну (на что он не имеет прав). Полководец армии Попеля, Пястун, пресытившись интригами и жесткостью своего властителя, покидает его.
Попел жаждет мщения и посылает своих людей найти и убить, но Пястун спасется благодаря молодому воину, Земовиту. Земовит довольно долго жил у Викингов и только недавно вернулся на Родину. Он влюбляется в прекрасную Дэиву, дочь Виша (одного из вассалов Попеля). Земовит хочет жениться, но судьба Дзивы предрешена — волей ее отца она должна стать жрицей в местном святилище…

Качество: DVDRip
Формат: AVI
Видео кодек: XviD
Аудио кодек: AC3
Видео: 720x304 (2.37:1), 25 fps, XviD build 50 ~1634 kbps avg, 0.30 bit/pixel
Аудио: 48 kHz, AC3 Dolby Digital, 3/2 (L,C,R,l,r) + LFE ch, ~384 kbps

MediaInfo

Общее
Полное имя : D:\Video\Kogda.Solnze.DVDRip.Lesnik125.avi
Формат : AVI
Формат/Информация : Audio Video Interleave
Размер файла : 1,46 Гбайт
Продолжительность : 1 ч. 42 м.
Общий поток : 2029 Кбит/сек
Название фильма : Когда солнце было богом / Stara basn. Kiedy slonce bylo bogiem
Режиссёр : SC Kosmos
Жанр : Action / Fantasy
Программа кодирования : VirtualDubMod 1.5.10.2 (build 2540/release)
Формат оригинала/Имя : Film
Правообладатель : 2011-03-01
Примечание : Rip by Lesnik125
Видео
Идентификатор : 0
Формат : MPEG-4 Visual
Профиль формата : Advanced Simple@L5
Параметр BVOP формата : 1
Параметр QPel формата : Нет
Параметр GMC формата : Без точки перехода
Параметр матрицы формата : Выборочная
Идентификатор кодека : XVID
Идентификатор кодека/Подсказка : XviD
Продолжительность : 1 ч. 42 м.
Битрейт : 1635 Кбит/сек
Ширина : 720 пикселей
Высота : 304 пикселя
Соотношение сторон : 2,35:1
Частота кадров : 25,000 кадров/сек
Цветовое пространство : YUV
Субдискретизация насыщенности : 4:2:0
Битовая глубина : 8 бит
Тип развёртки : Прогрессивная
Метод сжатия : С потерями
Бит/(Пиксели*Кадры) : 0.299
Размер потока : 1,17 Гбайт (81%)
Библиотека кодирования : XviD 1.2.1 (UTC 2008-12-04)
Аудио
Идентификатор : 1
Формат : AC-3
Формат/Информация : Audio Coding 3
Расширение режима : CM (complete main)
Параметр Endianness формата : Big
Идентификатор кодека : 2000
Продолжительность : 1 ч. 42 м.
Вид битрейта : Постоянный
Битрейт : 384 Кбит/сек
Каналы : 6 каналов
Расположение каналов : Front: L C R, Side: L R, LFE
Частота : 48,0 КГц
Битовая глубина : 16 бит
Метод сжатия : С потерями
Размер потока : 282 Мбайт (19%)
Выравнивание : Разделение по промежуткам
Продолжительность промежутка : 40 мс. (1,00 видеокадр)
Время предзагрузки промежутка : 500 мс.
 
Показать сообщения:    

Текущее время: Сегодня 03:33

Часовой пояс: GMT



Вы не можете начинать темы
Вы не можете отвечать на сообщения
Вы не можете редактировать свои сообщения
Вы не можете удалять свои сообщения
Вы не можете голосовать в опросах
Вы не можете прикреплять файлы к сообщениям
Вы не можете скачивать файлы