Важное объявление!
У Нас Все раздачи мультитрекерные, при нуле пиров в релизах, можете смело вставать на закачку!
Статистика раздачи
Размер:     |    Зарегистрирован:     |    Скачан:     |   
Нет
 
     
 
 
Автор Сообщение

HUNTER

Стаж:
5 лет
Сообщений:
67968

Репутация: 101

[+] [-]
Вне форума [Профиль] [ЛС]

Когда погода меняет ход истории / When Weather Changed History
Дата/Год выпуска: 2008
Страна: Великобритания / США
Жанр: Документальный сериал
Продолжительность: 00:41:00
Перевод: Одноголосый закадровый
Русские субтитры: нет
Оригинальная аудиодорожка: английский
Режиссер: Discovery
Телеканал: The Weather Channel
Описание: Сериал "Когда погода меняет ход истории" рассказывает о том, как погода повлияла на исторические события, такие как D-Day, гибель Титаника, Чикагская жара 1995 года и другие эпизоды истории. Судьбоносные моменты истории случаются, когда силы природы сталкиваются с силой человека. Результаты такого столкновения бывают самыми непредсказуемыми и разрушительными.
Доп. информация: Раздача ведется путем добавления новых серий.
Сэмпл: http://multi-up.com/964572
качество: DVB
формат: TS/M2TS
Видео: AVC, 720х576, 4:3, 1568 Кбит/сек, 25 fps
Аудио: (Rus): MPEG Audio, 160 Кбит/сек, 48 КГц, 2 канала
Аудио 2: (Eng): MPEG Audio, 160 Кбит/сек, 48 КГц, 2 канала

Список выпусков/серий

1. Катастрофа "Гинденбурга" (Hindenburg Disaster)
2. Втожение в Нормандию (D-Day Invasion)
3. Пылевая буря (Dust Bowl)
4. Нагасаки (Nagasaki)
5. Титаник (Titanic)

MediaInfo

ОбщееИдентификатор : 16 (0x10)Полное имя : E:\TEMP_DVR\When Weather changed History. Hindenburg disaster.tsФормат : MPEG-TSРазмер файла : 592 МбайтПродолжительность : 41 м.Режим общего битрейта : ПеременныйОбщий поток : 1990 Кбит/сек
ВидеоИдентификатор : 1407 (0x57F)Идентификатор меню : 407 (0x197)Формат : AVCФормат/Информация : Advanced Video CodecПрофиль формата : Main@L3.0Параметр CABAC формата : ДаПараметр ReFrames формата : 3 кадраИдентификатор кодека : 27Продолжительность : 41 м.Битрейт : 1568 Кбит/секШирина : 720 пикселейВысота : 576 пикселейСоотношение сторон : 4:3Частота кадров : 25,000 кадров/секСтандарт вещания : PALЦветовое пространство : YUVСубдискретизация насыщенности : 4:2:0Битовая глубина : 8 битТип развёртки : ЧересстрочнаяПорядок развёртки : Верхнее поле первоеБит/(Пиксели*Кадры) : 0.151Размер потока : 467 Мбайт (79%)Основные цвета : BT.601 PALХарактеристики трансфера : BT.470 System B, BT.470 System GКоэффициенты матрицы : BT.601
Аудио #1Идентификатор : 2407 (0x967)Идентификатор меню : 407 (0x197)Формат : MPEG AudioВерсия формата : Version 1Профиль формата : Layer 2Идентификатор кодека : 4Продолжительность : 41 м.Вид битрейта : ПостоянныйБитрейт : 160 Кбит/секКаналы : 2 каналаЧастота : 48,0 КГцМетод сжатия : С потерямиЗадержка видео : 13 мс.Размер потока : 47,6 Мбайт (8%)Язык : stdЯзык, дополнительно : Clean effects
Аудио #2Идентификатор : 3407 (0xD4F)Идентификатор меню : 407 (0x197)Формат : MPEG AudioВерсия формата : Version 1Профиль формата : Layer 2Идентификатор кодека : 4Продолжительность : 41 м.Вид битрейта : ПостоянныйБитрейт : 160 Кбит/секКаналы : 2 каналаЧастота : 48,0 КГцМетод сжатия : С потерямиЗадержка видео : 133 мс.Размер потока : 47,6 Мбайт (8%)Язык : EnglishЯзык, дополнительно : Clean effects

Скриншоты


_________________
Показать сообщения:    

Текущее время: Сегодня 12:51

Часовой пояс: GMT



Вы не можете начинать темы
Вы не можете отвечать на сообщения
Вы не можете редактировать свои сообщения
Вы не можете удалять свои сообщения
Вы не можете голосовать в опросах
Вы не можете прикреплять файлы к сообщениям
Вы не можете скачивать файлы