Ивановский Торрент трекер
Яндекс.Погода
 

[Цитировать]
HUNTER

Когда мы Были Королями / When We Were Kings- Год выпуска: 2014
Страна: США | Das Films | David Sonenberg Production | Polygram Filmed Entertainment
Жанр: Документальный
Продолжительность: 1:29:42
Перевод: Профессиональный (Двухголосый закадровый) | по заказу "МАТЧ!"
Участники: Мухаммед Али, Джордж Формен, Дон Кинг, Джеймс Браун, Б.Б. Кинг, Мобуту Сесе Секо, Спайк Ли, Норман Мейлер, Джордж Плимптон, Томас Хаузер
Режиссеры: Леон Гаст / Leon Gast-Описание: Документальный фильм, рассказывающий о самом трудном поединке Мухаммеда Али против Джорджа Формена, который состоялся 30 октября 1974 года в городе Киншаса.- -Автор рипа: lrn
Автор записи: Alexin29
Сэмпл: sendfile-Тип релиза: HDTVRip 720p
Контейнер: MKV
Видео: 1280x720 (16:9), 25,000 fps, H264, ~4000 kbps avg, ~0.174 bit/pixel
Аудио: 48 kHz, AC3 Dolby Digital, 2/0 (L,R) ch, ~192.00 kbps avg-

MediaInfo

GeneralUnique ID : 233415506391894392492419149105437776421 (0xAF9A30FAA38E59A6B68A74CDB0BA9A25)Complete name : E:\uTorrent.Temp\Temp\When.We.Were.Kings.1996.HDTVRip.720p.x264-RUS-lrn.mkvFormat : MatroskaFormat version : Version 4 / Version 2File size : 2.25 GiBDuration : 1 h 16 minOverall bit rate : 4 191 kb/sMovie name : When.We.Were.Kings.1996.HDTVRip.720p.x264-RUS-lrnEncoded date : UTC 2010-02-22 21:41:31Writing application : mkvmerge v5.9.0 ('On The Loose') built on Dec 9 2012 15:37:01Writing library : libebml v1.3.0 + libmatroska v1.4.0
VideoID : 1Format : AVCFormat/Info : Advanced Video CodecFormat profile : High@L4.1Format settings, CABAC : YesFormat settings, ReFrames : 8 framesCodec ID : V_MPEG4/ISO/AVCDuration : 1 h 16 minBit rate : 4 000 kb/sWidth : 1 280 pixelsHeight : 720 pixelsDisplay aspect ratio : 16:9Frame rate mode : ConstantFrame rate : 25.000 FPSColor space : YUVChroma subsampling : 4:2:0Bit depth : 8 bitsScan type : ProgressiveBits/(Pixel*Frame) : 0.174Stream size : 2.10 GiB (93%)Writing library : x264 core 142 r2479 dd79a61Encoding settings : cabac=1 / ref=8 / deblock=1:-3:-3 / analyse=0x3:0x133 / me=umh / subme=9 / psy=1 / psy_rd=1.00:0.00 / mixed_ref=1 / me_range=32 / chroma_me=1 / trellis=2 / 8x8dct=1 / cqm=0 / deadzone=21,11 / fast_pskip=1 / chroma_qp_offset=-2 / threads=12 / lookahead_threads=2 / sliced_threads=0 / nr=0 / decimate=1 / interlaced=0 / bluray_compat=0 / constrained_intra=0 / bframes=8 / b_pyramid=2 / b_adapt=2 / b_bias=0 / direct=3 / weightb=1 / open_gop=0 / weightp=2 / keyint=250 / keyint_min=25 / scenecut=40 / intra_refresh=0 / rc_lookahead=50 / rc=2pass / mbtree=1 / bitrate=4000 / ratetol=1.0 / qcomp=0.60 / qpmin=0 / qpmax=69 / qpstep=4 / cplxblur=20.0 / qblur=0.5 / vbv_maxrate=62500 / vbv_bufsize=78125 / nal_hrd=none / filler=0 / ip_ratio=1.40 / aq=1:1.00Default : YesForced : NoColor range : LimitedColor primaries : BT.709Transfer characteristics : BT.709Matrix coefficients : BT.709
AudioID : 2Format : AC-3Format/Info : Audio Coding 3Mode extension : CM (complete main)Format settings, Endianness : BigCodec ID : A_AC3Duration : 1 h 16 minBit rate mode : ConstantBit rate : 192 kb/sChannel(s) : 2 channelsChannel positions : Front: L RSampling rate : 48.0 kHzFrame rate : 31.250 FPS (1536 spf)Compression mode : LossyStream size : 105 MiB (5%)Language : RussianDefault : YesForced : No

x264 log

raw [info]: 1280x720p 1:1 @ 25/1 fps (cfr)x264 [info]: using SAR=1/1x264 [info]: using cpu capabilities: MMX2 SSE2Fast SSSE3 SSE4.2 AVXx264 [info]: profile High, level 4.1x264 [info]: frame I:610 Avg QP:15.18 size: 56822x264 [info]: frame P:33334 Avg QP:17.78 size: 30508x264 [info]: frame B:81209 Avg QP:19.04 size: 15388x264 [info]: consecutive B-frames: 4.1% 7.1% 10.5% 60.7% 9.4% 6.3% 1.1% 0.7% 0.2%x264 [info]: mb I I16..4: 7.7% 83.6% 8.7%x264 [info]: mb P I16..4: 5.3% 30.7% 1.8% P16..4: 38.7% 14.9% 5.3% 0.1% 0.0% skip: 3.2%x264 [info]: mb B I16..4: 0.9% 4.7% 0.2% B16..8: 37.7% 14.6% 2.6% direct:15.6% skip:23.7% L0:44.7% L1:43.5% BI:11.8%x264 [info]: 8x8 transform intra:81.3% inter:71.7%x264 [info]: direct mvs spatial:99.6% temporal:0.4%x264 [info]: coded y,uvDC,uvAC intra: 72.5% 74.6% 31.7% inter: 33.5% 43.7% 1.5%x264 [info]: i16 v,h,dc,p: 35% 12% 6% 46%x264 [info]: i8 v,h,dc,ddl,ddr,vr,hd,vl,hu: 16% 10% 8% 7% 10% 14% 11% 13% 12%x264 [info]: i4 v,h,dc,ddl,ddr,vr,hd,vl,hu: 18% 11% 6% 7% 13% 15% 12% 10% 9%x264 [info]: i8c dc,h,v,p: 38% 24% 21% 17%x264 [info]: Weighted P-Frames: Y:3.1% UV:0.7%x264 [info]: ref P L0: 46.3% 7.9% 18.1% 7.9% 6.3% 5.0% 4.6% 3.4% 0.6% 0.0%x264 [info]: ref B L0: 78.2% 11.2% 4.6% 2.4% 1.8% 1.2% 0.6%x264 [info]: ref B L1: 95.1% 4.9%x264 [info]: kb/s:3996.90encoded 115153 frames, 15.89 fps, 3996.90 kb/s

Скриншоты

-
Показать сообщения:    

Текущее время: 20-Сен 10:17

Часовой пояс: UTC - 1


Вы не можете начинать темы
Вы не можете отвечать на сообщения
Вы не можете редактировать свои сообщения
Вы не можете удалять свои сообщения
Вы не можете голосовать в опросах
Вы не можете прикреплять файлы к сообщениям
Вы не можете скачивать файлы

!ВНИМАНИЕ!
Сайт не предоставляет электронные версии произведений, а занимается лишь коллекционированием и каталогизацией ссылок, присылаемых и публикуемых на форуме нашими читателями. Если вы являетесь правообладателем какого-либо представленного материала и не желаете, чтобы ссылка на него находилась в нашем каталоге, свяжитесь с нами, и мы незамедлительно удалим ее. Файлы для обмена на трекере предоставлены пользователями сайта, и администрация не несет ответственности за их содержание. Просьба не заливать файлы, защищенные авторскими правами, а также файлы нелегального содержания!