Важное объявление!
У Нас Все раздачи мультитрекерные, при нуле пиров в релизах, можете смело вставать на закачку!
 
Автор Сообщение

HUNTER

Стаж:
4 года 7 месяцев
Сообщений:
61546

Репутация: 101

[+] [-]
Вне форума [Профиль] [ЛС]

Когда мы Были Королями / When We Were Kings-
Год выпуска: 2014
Страна: США | Das Films | David Sonenberg Production | Polygram Filmed Entertainment
Жанр: Документальный
Продолжительность: 1:29:42
Перевод: Профессиональный (Двухголосый закадровый) | по заказу "МАТЧ!"
Режиссеры: Леон Гаст / Leon Gast
Участники: Мухаммед Али, Джордж Формен, Дон Кинг, Джеймс Браун, Б.Б. Кинг, Мобуту Сесе Секо, Спайк Ли, Норман Мейлер, Джордж Плимптон, Томас Хаузер-Описание: Документальный фильм, рассказывающий о самом трудном поединке Мухаммеда Али против Джорджа Формена, который состоялся 30 октября 1974 года в городе Киншаса.- -Автор рипа: lrn
Автор записи: Alexin29
Сэмпл: sendfile-Тип релиза: HDTVRip-AVC
Контейнер: MKV
Видео: 1024x576 (16:9), 25,000 fps, H264, ~1500 kbps avg, ~0.102 bit/pixel
Аудио: 48 kHz, AC3 Dolby Digital, 2/0 (L,R) ch, ~192.00 kbps avg-

MediaInfo

GeneralUnique ID : 193130926175401107838896202946567797688 (0x914BA9D3FB7DDAD29CF00AF22C0CFBB8)Complete name : E:\uTorrent.Temp\Temp\When.We.Were.Kings.1996.HDTVRip-AVC.x264-RUS-lrn.mkvFormat : MatroskaFormat version : Version 4 / Version 2File size : 929 MiBDuration : 1 h 16 minOverall bit rate : 1 691 kb/sMovie name : When.We.Were.Kings.1996.HDTVRip-AVC.x264-RUS-lrnEncoded date : UTC 2010-02-22 21:41:31Writing application : mkvmerge v5.9.0 ('On The Loose') built on Dec 9 2012 15:37:01Writing library : libebml v1.3.0 + libmatroska v1.4.0
VideoID : 1Format : AVCFormat/Info : Advanced Video CodecFormat profile : High@L4.1Format settings, CABAC : YesFormat settings, ReFrames : 8 framesCodec ID : V_MPEG4/ISO/AVCDuration : 1 h 16 minBit rate : 1 500 kb/sWidth : 1 024 pixelsHeight : 576 pixelsDisplay aspect ratio : 16:9Frame rate mode : ConstantFrame rate : 25.000 FPSColor space : YUVChroma subsampling : 4:2:0Bit depth : 8 bitsScan type : ProgressiveBits/(Pixel*Frame) : 0.102Stream size : 805 MiB (87%)Writing library : x264 core 142 r2479 dd79a61Encoding settings : cabac=1 / ref=8 / deblock=1:-3:-3 / analyse=0x3:0x133 / me=umh / subme=9 / psy=1 / psy_rd=1.00:0.00 / mixed_ref=1 / me_range=32 / chroma_me=1 / trellis=2 / 8x8dct=1 / cqm=0 / deadzone=21,11 / fast_pskip=1 / chroma_qp_offset=-2 / threads=12 / lookahead_threads=2 / sliced_threads=0 / nr=0 / decimate=1 / interlaced=0 / bluray_compat=0 / constrained_intra=0 / bframes=8 / b_pyramid=2 / b_adapt=2 / b_bias=0 / direct=3 / weightb=1 / open_gop=0 / weightp=2 / keyint=250 / keyint_min=25 / scenecut=40 / intra_refresh=0 / rc_lookahead=50 / rc=2pass / mbtree=1 / bitrate=1500 / ratetol=1.0 / qcomp=0.60 / qpmin=0 / qpmax=69 / qpstep=4 / cplxblur=20.0 / qblur=0.5 / vbv_maxrate=62500 / vbv_bufsize=78125 / nal_hrd=none / filler=0 / ip_ratio=1.40 / aq=1:1.00Default : YesForced : NoColor range : LimitedColor primaries : BT.709Transfer characteristics : BT.709Matrix coefficients : BT.709
AudioID : 2Format : AC-3Format/Info : Audio Coding 3Mode extension : CM (complete main)Format settings, Endianness : BigCodec ID : A_AC3Duration : 1 h 16 minBit rate mode : ConstantBit rate : 192 kb/sChannel(s) : 2 channelsChannel positions : Front: L RSampling rate : 48.0 kHzFrame rate : 31.250 FPS (1536 spf)Compression mode : LossyStream size : 105 MiB (11%)Language : RussianDefault : YesForced : No

x264 log

raw [info]: 1024x576p 1:1 @ 25/1 fps (cfr)x264 [info]: using SAR=1/1x264 [info]: using cpu capabilities: MMX2 SSE2Fast SSSE3 SSE4.2 AVXx264 [info]: profile High, level 4.1x264 [info]: frame I:626 Avg QP:18.93 size: 28013x264 [info]: frame P:31401 Avg QP:21.82 size: 12830x264 [info]: frame B:83126 Avg QP:23.29 size: 5315x264 [info]: consecutive B-frames: 3.2% 5.7% 10.3% 54.6% 13.3% 9.9% 1.8% 1.0% 0.3%x264 [info]: mb I I16..4: 12.8% 80.3% 6.9%x264 [info]: mb P I16..4: 6.3% 22.1% 0.8% P16..4: 47.6% 9.9% 5.5% 0.0% 0.0% skip: 7.7%x264 [info]: mb B I16..4: 0.6% 2.8% 0.1% B16..8: 39.1% 8.0% 1.3% direct: 6.9% skip:41.1% L0:44.9% L1:48.5% BI: 6.6%x264 [info]: 8x8 transform intra:76.6% inter:87.5%x264 [info]: direct mvs spatial:99.3% temporal:0.7%x264 [info]: coded y,uvDC,uvAC intra: 59.3% 59.3% 11.0% inter: 18.3% 26.6% 0.2%x264 [info]: i16 v,h,dc,p: 29% 16% 7% 49%x264 [info]: i8 v,h,dc,ddl,ddr,vr,hd,vl,hu: 13% 8% 6% 8% 12% 15% 12% 13% 12%x264 [info]: i4 v,h,dc,ddl,ddr,vr,hd,vl,hu: 16% 10% 3% 8% 14% 16% 13% 10% 10%x264 [info]: i8c dc,h,v,p: 37% 25% 20% 18%x264 [info]: Weighted P-Frames: Y:4.7% UV:1.2%x264 [info]: ref P L0: 44.9% 9.7% 19.4% 7.0% 6.2% 4.5% 4.6% 3.0% 0.6% 0.0%x264 [info]: ref B L0: 78.3% 11.2% 4.6% 2.3% 1.8% 1.2% 0.6%x264 [info]: ref B L1: 95.0% 5.0%x264 [info]: kb/s:1497.55encoded 115153 frames, 25.89 fps, 1497.55 kb/s

Скриншоты

-

_________________
Показать сообщения:    

Текущее время: Сегодня 22:33

Часовой пояс: GMT



Вы не можете начинать темы
Вы не можете отвечать на сообщения
Вы не можете редактировать свои сообщения
Вы не можете удалять свои сообщения
Вы не можете голосовать в опросах
Вы не можете прикреплять файлы к сообщениям
Вы не можете скачивать файлы
Наши партнеры: интернет магазин Ивановского трикотажа textilla.ru