Важное объявление!
У Нас Все раздачи мультитрекерные, при нуле пиров в релизах, можете смело вставать на закачку!
Статистика раздачи
Размер:     |    Зарегистрирован:     |    Скачан:     |   
Нет
 
     
 
 
Автор Сообщение

HUNTER

Стаж:
5 лет 1 месяц
Сообщений:
68429

Репутация: 101

[+] [-]
Вне форума [Профиль] [ЛС]

Когда женщину называли Мадонной / Когда женщин называли «Мадоннами» / Quando le donne si chiamavano «Madonne»
Страна: Италия, Германия
Жанр: комедия, эротика
Год выпуска: 1972
Продолжительность: 01:29:15
Перевод: Одноголосый закадровый Andi999
Cубтитры: русские Коптелов
Оригинальная аудиодорожка: итальянский
Режиссер: Альдо Гримальди / Aldo Grimaldi
В ролях: Эдвиж Фенек, Витторио Каприоли, Марио Каротенуто, Стефания Карреду, Юрген Древс, Паоло Турко, Антония Бранкати, Карло Де Мейо, Франческа Бенедетти, Петер Берлинг
Описание: Действие фильма разворачивается в Средневековье. Эдвидж Фенек обвиняется в супружеской измене. Суд происходит на многолюдной площади. Она заверяет, что не виновата, поскольку её муж сам проводит свободное время с другими женщинами, а её так вообще не удовлетворяет.
Она раздевается прилюдно на площади и спрашивает, разве это дело не достойно интимных ласк? Суд требует доказательств того, что Эдвидж не получает никакого удовольствия при половом контакте. Эдвидж с мужем в домашней обстановке, но в присутствии судей начинают заниматься любовью. Муж терпит неудачу и тогда вызывается любой человек из «присяжных». Он должен доказать, что у него по крайней мере в постели с Эдвидж получается лучше…
Доп. информация: Русская звуковая дорожка и субтитры взяты с этой раздачи http://rutracker.org/forum/viewtopic.php?t=4939365 автору большое спасибо.
При пересборе двд были использованы программы:
BeSweet в связке с BeLight – распаковка звука в формат WAV
Sony Vegas – кодирование в AC3
PgcDemux - разделение компонентов диска на файлы
Muxman - мультиплексирование и авторинг DVD
VobBlanker - реавторинг DVD

Скрин завершения проекта

Бонусы: Трейлеры, галерея.
Сэмпл: http://sendfile.su/1091085
Тип релиза: DVD9 (Custom)
Контейнер: DVD-Video
Видео: PAL 16:9 (720x576) VBR Auto Pan&Scan
Аудио: Russian (Dolby AC3, 192 Кбит/сек, 2 ch)
Аудио 2: Italiano (Dolby AC3, 448 Кбит/сек, 2 ch)
Аудио 3: Italiano (Dolby AC3, 448 Кбит/сек, 6 ch)
Формат субтитров: softsub (SRT)

DVDInfo

Size: 6.48 Gb ( 6 799 580 KBytes ) - DVD-9
Enabled regions: 1, 2, 3, 4, 5, 6, 7, 8
VTS_01 :
Play Length: 00:00:18
Video: PAL 16:9 (720x576) VBR, Auto Pan&Scan
Audio:
Italiano (Dolby AC3, 2 ch)
VTS_02 :
Play Length: 00:00:32+00:00:21+01:28:22
Video: PAL 16:9 (720x576) VBR, Auto Pan&Scan
Audio:
Russian (Dolby AC3, 2 ch)
Italiano (Dolby AC3, 2 ch)
Italiano (Dolby AC3, 6 ch)
Subtitles:
Not specified
Not specified
VTS_03 :
Play Length: 00:00:54
Video: PAL 16:9 (720x576) VBR, Auto Pan&Scan
Audio:
Italiano (Dolby AC3, 2 ch)
VTS_04 :
Play Length: 00:03:27+00:03:01+00:01:41+00:02:59+00:04:00
Video: PAL 4:3 (720x576) VBR
Audio:
Italiano (Dolby AC3, 2 ch)
Menu Video:
PAL 16:9 (720x576) VBR
Auto Pan&Scan
Menu Audio:
Not specified (Dolby AC3, 2 ch)
Menu Subtitles:
Not specified
Menu Italiano Language Unit :
Root Menu
Audio Menu
Chapter (PTT) Menu
Angle menu

MediaInfo

Общее
Полное имя : M:\Quando le donne si chiamavano Madonne_1972\VIDEO_TS\VTS_02_1.VOB
Формат : MPEG-PS
Размер файла : 1024 Мбайт
Продолжительность : 15 м.
Режим общего битрейта : Переменный
Общий поток : 9339 Кбит/сек
Видео
Идентификатор : 224 (0xE0)
Формат : MPEG Video
Версия формата : Version 2
Профиль формата : Main@Main
Параметр BVOP формата : Да
Параметр матрицы формата : Выборочная
Параметр GOP формата : M=3, N=15
Продолжительность : 15 м.
Вид битрейта : Переменный
Битрейт : 8000 Кбит/сек
Ширина : 720 пикселей
Высота : 576 пикселей
Соотношение сторон : 16:9
Частота кадров : 25,000 кадров/сек
Стандарт вещания : PAL
Цветовое пространство : YUV
Субдискретизация насыщенности : 4:2:0
Битовая глубина : 8 бит
Тип развёртки : Чересстрочная
Порядок развёртки : Верхнее поле первое
Метод сжатия : С потерями
Бит/(Пиксели*Кадры) : 0.772
Размер потока : 884 Мбайт (86%)
Аудио #1
Идентификатор : 189 (0xBD)-128 (0x80)
Формат : AC-3
Формат/Информация : Audio Coding 3
Расширение режима : CM (complete main)
Параметр Endianness формата : Big
Режим смешивания : DVD-Video
Продолжительность : 15 м.
Вид битрейта : Постоянный
Битрейт : 192 Кбит/сек
Каналы : 2 канала
Расположение каналов : Front: L R
Частота : 48,0 КГц
Битовая глубина : 16 бит
Метод сжатия : С потерями
Задержка видео : -80 мс.
Размер потока : 21,1 Мбайт (2%)
Аудио #2
Идентификатор : 189 (0xBD)-129 (0x81)
Формат : AC-3
Формат/Информация : Audio Coding 3
Расширение режима : CM (complete main)
Параметр Endianness формата : Big
Режим смешивания : DVD-Video
Продолжительность : 15 м.
Вид битрейта : Постоянный
Битрейт : 448 Кбит/сек
Каналы : 6 каналов
Расположение каналов : Front: L C R, Side: L R, LFE
Частота : 48,0 КГц
Битовая глубина : 16 бит
Метод сжатия : С потерями
Задержка видео : -80 мс.
Размер потока : 49,1 Мбайт (5%)
Аудио #3
Идентификатор : 189 (0xBD)-130 (0x82)
Формат : AC-3
Формат/Информация : Audio Coding 3
Расширение режима : CM (complete main)
Параметр Endianness формата : Big
Режим смешивания : DVD-Video
Продолжительность : 4 с. 480 мс.
Вид битрейта : Постоянный
Битрейт : 448 Кбит/сек
Каналы : 6 каналов
Расположение каналов : Front: L C R, Side: L R, LFE
Частота : 48,0 КГц
Битовая глубина : 16 бит
Метод сжатия : С потерями
Размер потока : 245 Кбайт (0%)
Текст #1
Идентификатор : 189 (0xBD)-32 (0x20)
Формат : RLE
Формат/Информация : Run-length encoding
Режим смешивания : DVD-Video
Текст #2
Идентификатор : 189 (0xBD)-33 (0x21)
Формат : RLE
Формат/Информация : Run-length encoding
Режим смешивания : DVD-Video
Меню

Скриншоты меню


_________________
Показать сообщения:    

Текущее время: Сегодня 05:44

Часовой пояс: GMT



Вы не можете начинать темы
Вы не можете отвечать на сообщения
Вы не можете редактировать свои сообщения
Вы не можете удалять свои сообщения
Вы не можете голосовать в опросах
Вы не можете прикреплять файлы к сообщениям
Вы не можете скачивать файлы