Важное объявление!
У Нас Все раздачи мультитрекерные, при нуле пиров в релизах, можете смело вставать на закачку!
 
Автор Сообщение

HUNTER

Стаж:
4 года 7 месяцев
Сообщений:
61487

Репутация: 101

[+] [-]
Вне форума [Профиль] [ЛС]

Ковбой / Отчаянный ковбой / Cowboy
Страна: США
Жанр: вестерн
Год выпуска: 1958
Продолжительность: 01:31:56
Перевод: Профессиональный (многоголосый закадровый)
Перевод 2: Авторский (одноголосый закадровый) Антон Алексеев
Cубтитры: английские, французские
Оригинальная аудиодорожка: английский
Режиссер: Дэлмер Дэйвс / Delmer Daves
В ролях: Гленн Форд, Джек Леммон, Анна Кашфи, Брайан Донлеви, Дик Йорк, Виктор Мануэль Мендоза, Ричард Джэкел, Кинг Донован, Вон Тейлор
Описание: Эта история человека, Франка Харриса, чьи романтические мечты об образе жизни ковбоя развеяны, когда он сопровождает своего босса, Тома Риса, при перегоне рогатого скота. Однако во время пути, Харрис обнаруживает, что трагедия, насилие и смерть — это часть жизни ковбоя. Если ты не стал ковбоем — ты не стал мужчиной…
Nominated for 1 Oscar. Another 1 nomination.
Доп. информация: К BDRip 720p, скачанному с забугорного трекера, добавлен русский профессиональный многоголосый закадровый перевод с этой раздачи, спасибо Kruil и русский одноголосый закадровый перевод с этой раздачи, спасибо mihaildns.
Используемый софт: MKVtool, BeSweet, Sony Vegas 10
Сэмпл: http://multi-up.com/1057330
Тип релиза: BDRip 720p
Контейнер: MKV
Видео: AVC, 8888 Kbps, 1280 x 690, 23.976 fps
Аудио 1: Russian (Dolby AC3, 2 ch), 48 kHz, 192 kbps - многоголосый
Аудио 2: Russian (Dolby AC3, 2 ch), 48 kHz, 192 kbps - Антон Алексеев
Аудио 3: English (AAC, 1 ch), 48 kHz, 184 kbps
Формат субтитров: UTF-8, PGS

MediaInfo

Формат : Matroska
Версия формата : Version 2
Размер файла : 6,07 Гбайт
Продолжительность : 1 ч. 31 м.
Общий поток : 9456 Кбит/сек
Дата кодирования : UTC 2015-07-05 13:07:57
Программа кодирования : mkvmerge v7.5.0 ('Glass Culture') 32bit built on Jan 4 2015 16:37:25
Библиотека кодирования : libebml v1.3.1 + libmatroska v1.4.2
DURATION : 01:31:56.544000000
NUMBER_OF_FRAMES : 172392
NUMBER_OF_BYTES : 132397056
_STATISTICS_WRITING_APP : mkvmerge v7.5.0 ('Glass Culture') 32bit built on Jan 4 2015 16:37:25
_STATISTICS_WRITING_DATE_UTC : 2015-07-05 13:07:57
_STATISTICS_TAGS : BPS DURATION NUMBER_OF_FRAMES NUMBER_OF_BYTES
Видео
Идентификатор : 1
Формат : AVC
Формат/Информация : Advanced Video Codec
Профиль формата : High@L4.1
Параметр CABAC формата : Да
Параметр ReFrames формата : 9 кадров
Идентификатор кодека : V_MPEG4/ISO/AVC
Продолжительность : 1 ч. 31 м.
Ширина : 1280 пикселей
Высота : 690 пикселей
Соотношение сторон : 1,85:1
Режим частоты кадров : Постоянный
Частота кадров : 23,976 кадра/сек
Цветовое пространство : YUV
Субдискретизация насыщенности : 4:2:0
Битовая глубина : 8 бит
Тип развёртки : Прогрессивная
Заголовок : Cowboy 1958 720p
Библиотека кодирования : x264 core 142 r2479 dd79a61
Настройки программы : cabac=1 / ref=9 / deblock=1:-3:-3 / analyse=0x3:0x133 / me=tesa / subme=11 / psy=1 / psy_rd=1.00:0.05 / mixed_ref=1 / me_range=35 / chroma_me=1 / trellis=2 / 8x8dct=1 / cqm=0 / deadzone=21,11 / fast_pskip=0 / chroma_qp_offset=-3 / threads=18 / lookahead_threads=4 / sliced_threads=0 / nr=0 / decimate=1 / interlaced=0 / bluray_compat=0 / constrained_intra=0 / bframes=16 / b_pyramid=2 / b_adapt=2 / b_bias=0 / direct=3 / weightb=1 / open_gop=0 / weightp=2 / keyint=240 / keyint_min=24 / scenecut=40 / intra_refresh=0 / rc_lookahead=60 / rc=crf / mbtree=1 / crf=20.0 / qcomp=0.60 / qpmin=0 / qpmax=69 / qpstep=4 / vbv_maxrate=62500 / vbv_bufsize=78125 / crf_max=0.0 / nal_hrd=none / filler=0 / ip_ratio=1.40 / aq=1:1.00
Язык : Russian
Default : Да
Forced : Нет
Основные цвета : BT.709
Характеристики трансфера : BT.709
Коэффициенты матрицы : BT.709
colour_range : Limited
DURATION : 01:31:56.470000000
NUMBER_OF_FRAMES : 132263
NUMBER_OF_BYTES : 6113792767
_STATISTICS_WRITING_APP : mkvmerge v7.5.0 ('Glass Culture') 32bit built on Jan 4 2015 16:37:25
_STATISTICS_WRITING_DATE_UTC : 2015-07-05 13:07:57
_STATISTICS_TAGS : BPS DURATION NUMBER_OF_FRAMES NUMBER_OF_BYTES
Аудио #1
Идентификатор : 2
Формат : AC-3
Формат/Информация : Audio Coding 3
Расширение режима : CM (complete main)
Параметр Endianness формата : Big
Идентификатор кодека : A_AC3
Продолжительность : 1 ч. 31 м.
Вид битрейта : Постоянный
Битрейт : 192 Кбит/сек
Каналы : 2 канала
Расположение каналов : Front: L R
Частота : 48,0 КГц
Битовая глубина : 16 бит
Метод сжатия : С потерями
Задержка видео : -83 мс.
Размер потока : 126 Мбайт (2%)
Заголовок : Russian - MVO
Язык : Russian
Default : Да
Forced : Нет
DURATION : 01:31:56.544000000
NUMBER_OF_FRAMES : 258588
NUMBER_OF_BYTES : 134601268
_STATISTICS_WRITING_APP : mkvmerge v7.5.0 ('Glass Culture') 32bit built on Jan 4 2015 16:37:25
_STATISTICS_WRITING_DATE_UTC : 2015-07-05 13:07:57
_STATISTICS_TAGS : BPS DURATION NUMBER_OF_FRAMES NUMBER_OF_BYTES
Аудио #2
Идентификатор : 3
Формат : AC-3
Формат/Информация : Audio Coding 3
Расширение режима : CM (complete main)
Параметр Endianness формата : Big
Идентификатор кодека : A_AC3
Продолжительность : 1 ч. 31 м.
Вид битрейта : Постоянный
Битрейт : 192 Кбит/сек
Каналы : 2 канала
Расположение каналов : Front: L R
Частота : 48,0 КГц
Битовая глубина : 16 бит
Метод сжатия : С потерями
Задержка видео : -83 мс.
Размер потока : 126 Мбайт (2%)
Заголовок : Russian - Алексеев
Язык : Russian
Default : Нет
Forced : Нет
Аудио #3
Идентификатор : 4
Формат : AAC
Формат/Информация : Advanced Audio Codec
Профиль формата : LC
Идентификатор кодека : A_AAC
Продолжительность : 1 ч. 31 м.
Каналы : 1 канал
Расположение каналов : Front: C
Частота : 48,0 КГц
Метод сжатия : С потерями
Задержка видео : -21 мс.
Язык : English
Default : Нет
Forced : Нет
Текст #1
Идентификатор : 5
Формат : UTF-8
Идентификатор кодека : S_TEXT/UTF8
Идентификатор кодека/Информация : UTF-8 Plain Text
Заголовок : SRT
Язык : English
Default : Нет
Forced : Нет
Текст #2
Идентификатор : 6
Формат : PGS
Режим смешивания : zlib
Идентификатор кодека : S_HDMV/PGS
Идентификатор кодека/Информация : The same subtitle format used on BDs/HD-DVDs
Язык : French
Default : Нет
Forced : Нет
Меню
00:00:00.000 : :1. Intro / "Mr. Reece is in town"
00:06:06.282 : :2. Arrival at the grand hotel
00:11:25.768 : :3. "Take me with you"
00:15:14.330 : :4. A new partner
00:20:11.835 : :5. Life of a cowboy
00:32:01.586 : :6. Snake bite
00:42:36.053 : :7. Visit the vidal
00:48:37.623 : :8. "Does one of Americanos want to try his luck?"
00:57:02.168 : :9. "You are interested only in your troops!"
01:05:17.205 : :10. "Let go of the the livestock and hunt the Indians!"
01:16:43.849 : :11. Loading the train
01:24:58.176 : :12. In the livestock convoy / Return to the grand hotel

Скриншоты


_________________
Показать сообщения:    

Текущее время: Сегодня 05:32

Часовой пояс: GMT



Вы не можете начинать темы
Вы не можете отвечать на сообщения
Вы не можете редактировать свои сообщения
Вы не можете удалять свои сообщения
Вы не можете голосовать в опросах
Вы не можете прикреплять файлы к сообщениям
Вы не можете скачивать файлы
Наши партнеры: интернет магазин Ивановского трикотажа textilla.ru