Ивановский Торрент трекер
Яндекс.Погода
 

[Цитировать]
HUNTER

Князь Владимир
Страна: Россия
Жанр: драма, история
Продолжительность: 01:17:07
Год выпуска: 2006
Русские субтитры: есть
Режиссёр: Юрий Кулаков
Роли озвучивали: Сергей Безруков, Александр Баринов, Томас Шлеккер, Юрий Беркун, Лев Дуров, Алексей Колган, Дмитрий Назаров, Владимир Гостюхин, Коля Расторгуев, Василий Дахненко...
Описание: Невиданная и загадочная древняя Русь, утопающая в красках первозданной природы и старинных праздников. Деревянные города и необъятные просторы, жестокие сражения и щедрые пиры, шумные ярмарки и грандиозные охоты. На фоне всех этих исторических событий и удивительных приключений крепнет настоящая дружба и рождается первая любовь…
Семпл: http://multi-up.com/973956
Качество: DVDRip-AVC
Формат: MKV
Видео: 720x576 (16:9) @ 1024x576, 25.000 fps, AVC, ~2255 Kbps, 0.217 bits/pixel
Аудио: 48.0 KHz, AC3, 6 ch, 448 Kbps
Субтитры: русские

СравнениеПодробные технические данные
GeneralUnique ID : 206503955695987166792334543126904860045 (0x9B5B3716C0BDF3FA8AF419381D566D8D)Complete name : C:\Князь Владимир.mkvFormat : MatroskaFormat version : Version 4 / Version 2File size : 1.46 GiBDuration : 1h 17mnOverall bit rate : 2 705 KbpsEncoded date : UTC 2014-05-15 12:49:36Writing application : mkvmerge v6.9.1 ('Blue Panther') 64bit built on Apr 18 2014 18:23:38Writing library : libebml v1.3.0 + libmatroska v1.4.1
VideoID : 1Format : AVCFormat/Info : Advanced Video CodecFormat profile : High@L3.1Format settings, CABAC : YesFormat settings, ReFrames : 9 framesCodec ID : V_MPEG4/ISO/AVCDuration : 1h 17mnBit rate : 2 255 KbpsWidth : 720 pixelsHeight : 576 pixelsDisplay aspect ratio : 16:9Frame rate mode : ConstantFrame rate : 25.000 fpsStandard : PALColor space : YUVChroma subsampling : 4:2:0Bit depth : 8 bitsScan type : ProgressiveBits/(Pixel*Frame) : 0.217Stream size : 1.19 GiB (81%)Writing library : x264 core 133 r2334 a3ac64bEncoding settings : cabac=1 / ref=9 / deblock=1:-1:-1 / analyse=0x3:0x133 / me=umh / subme=10 / psy=1 / psy_rd=1.00:0.10 / mixed_ref=1 / me_range=32 / chroma_me=1 / trellis=2 / 8x8dct=1 / cqm=0 / deadzone=21,11 / fast_pskip=0 / chroma_qp_offset=-3 / threads=6 / lookahead_threads=1 / sliced_threads=0 / nr=0 / decimate=1 / interlaced=0 / bluray_compat=0 / constrained_intra=0 / bframes=8 / b_pyramid=2 / b_adapt=2 / b_bias=0 / direct=3 / weightb=1 / open_gop=0 / weightp=2 / keyint=250 / keyint_min=25 / scenecut=40 / intra_refresh=0 / rc_lookahead=50 / rc=2pass / mbtree=1 / bitrate=2255 / ratetol=1.0 / qcomp=0.60 / qpmin=0 / qpmax=69 / qpstep=4 / cplxblur=20.0 / qblur=0.5 / ip_ratio=1.40 / aq=1:1.00Default : YesForced : No
AudioID : 2Format : AC-3Format/Info : Audio Coding 3Mode extension : CM (complete main)Format settings, Endianness : BigCodec ID : A_AC3Duration : 1h 17mnBit rate mode : ConstantBit rate : 448 KbpsChannel(s) : 6 channelsChannel positions : Front: L C R, Side: L R, LFESampling rate : 48.0 KHzBit depth : 16 bitsCompression mode : LossyStream size : 247 MiB (17%)Language : RussianDefault : YesForced : No
TextID : 3Format : UTF-8Codec ID : S_TEXT/UTF8Codec ID/Info : UTF-8 Plain TextLanguage : RussianDefault : NoForced : No
Menu00:00:00.000 : :А было это так...00:05:27.000 : :На зимней реке00:13:53.520 : :Масленица!00:21:47.120 : :Царьград00:28:52.320 : :Путь на Киев00:36:27.880 : :Лесной дед00:42:10.560 : :"Идём с делами правыми"00:49:29.240 : :"Власть держится на страхе"00:54:51.240 : :Княжеская охота01:01:49.200 : :Честный поединок01:10:15.120 : :"Бог есть любовь"01:14:32.800 : :Титры
Скриншоты


Показать сообщения:    

Текущее время: 18-Дек 22:32

Часовой пояс: UTC ± 0


Вы не можете начинать темы
Вы не можете отвечать на сообщения
Вы не можете редактировать свои сообщения
Вы не можете удалять свои сообщения
Вы не можете голосовать в опросах
Вы не можете прикреплять файлы к сообщениям
Вы не можете скачивать файлы

!ВНИМАНИЕ!
Сайт не предоставляет электронные версии произведений, а занимается лишь коллекционированием и каталогизацией ссылок, присылаемых и публикуемых на форуме нашими читателями. Если вы являетесь правообладателем какого-либо представленного материала и не желаете, чтобы ссылка на него находилась в нашем каталоге, свяжитесь с нами, и мы незамедлительно удалим ее. Файлы для обмена на трекере предоставлены пользователями сайта, и администрация не несет ответственности за их содержание. Просьба не заливать файлы, защищенные авторскими правами, а также файлы нелегального содержания!