Ивановский Торрент трекер
Яндекс.Погода
 

[Цитировать]
HUNTER

--Княжна из хрущевки (Княжна)-- Год выпуска: 2013
Производство: Россия, компания "Пирамида"
Жанр: Лирическая комедия
Продолжительность: ~ 00:45:00
Субтитры: Нету--Режиссёр: Тимур Кабулов--В ролях: Евгения Туркова, Станислав Бондаренко, Елена Панова, Дарья Калмыкова, Артем Артемьев, Сергей Неудачин, Ольга Дибцева, Тамара Спиричева, Диана Корсс--Описание: Благодаря цепочке комических и немного странных обстоятельств, простая девушка Лиза, с рабочей окраины Москвы, где она живет с отцом-сантехником, устраивается домработницей к преуспевающему владельцу модного глянцевого журнала "Кабриолет" Гарику. Он живет в старом арбатском доме, в квартире своего отца, когда то известного, а ныне покойного дирижера. Сводная сестра бизнесмена Женя, которая занимается шоу бизнесом, решает помочь бедной девочке, и сделать из нее "светскую львицу", "княгиню", наследницу большого состояния. Но для этого нужно привить девушке манеры, избавить от косноязычия, да и вообще, "вправить мозги". Гарика знакомят с наследницей многомиллионного состояния Елизаветой. Он поначалу принимает всё за чистую монету. Женя уверена - если уж его провели, то остальных, которые не знали прежнюю Лизу, и подавно. Но Гарик стоит на своём. Можно прилично одеть и научить правильно говорить, но через час общения она себя выдаст и опозориться. Только спустя год Гарик встретит Лизу, которая к тому времени поступит в институт и будет так же далека от образа, придуманного Женей, как и от себя самой в начале истории.--Качество: SATRip--Формат: AVI
Видео кодек: XviD
Аудио кодек: AC3
Видео: 720x416 (1.73:1), 25 fps, XviD build 50 ~1658 kbps avg, 0.22 bit/pixel
Аудио: 48 kHz, AC3 Dolby Digital, 1/0 (C) ch, ~192 kbps--Релиз от: --

MI


Общее
Полное имя : C:\Users\SAM\Desktop\Княжна из хрущевки (2013) SATRip by SANNYa\Княжна из хрущевки (2013) 1-я Серия SATRip by SANNYa.avi
Формат : AVI
Формат/Информация : Audio Video Interleave
Размер файла : 791 Мбайт
Продолжительность : 59 м.
Общий поток : 1861 Кбит/сек
Программа кодирования : VirtualDubMod 1.5.10.2 (build 2540/release)
Библиотека кодирования : VirtualDubMod build 2540/release
Видео
Идентификатор : 0
Формат : MPEG-4 Visual
Профиль формата : Advanced Simple@L5
Параметр BVOP формата : 1
Параметр QPel формата : Нет
Параметр GMC формата : Без точки перехода
Параметр матрицы формата : Default (MPEG)
Идентификатор кодека : XVID
Идентификатор кодека/Подсказка : XviD
Продолжительность : 59 м.
Битрейт : 1659 Кбит/сек
Ширина : 720 пикселей
Высота : 416 пикселей
Соотношение сторон : 1,731
Частота кадров : 25,000 кадров/сек
Цветовое пространство : YUV
Субдискретизация насыщенности : 4:2:0
Битовая глубина : 8 бит
Тип развёртки : Прогрессивная
Метод сжатия : С потерями
Бит/(Пиксели*Кадры) : 0.222
Размер потока : 705 Мбайт (89%)
Библиотека кодирования : XviD 1.2.1 (UTC 2008-12-04)
Аудио
Идентификатор : 1
Формат : AC-3
Формат/Информация : Audio Coding 3
Расширение режима : CM (complete main)
Параметр Endianness формата : Big
Идентификатор кодека : 2000
Продолжительность : 59 м.
Вид битрейта : Постоянный
Битрейт : 192 Кбит/сек
Каналы : 1 канал
Расположение каналов : Front: C
Частота : 48,0 КГц
Битовая глубина : 16 бит
Метод сжатия : С потерями
Размер потока : 81,6 Мбайт (10%)
Выравнивание : Соединение по промежуткам
Продолжительность промежутка : 40 мс. (1,00 видеокадр)
Время предзагрузки промежутка : 512 мс.
--

Скриншоты

--


Показать сообщения:    

Текущее время: 11-Дек 00:05

Часовой пояс: UTC ± 0


Вы не можете начинать темы
Вы не можете отвечать на сообщения
Вы не можете редактировать свои сообщения
Вы не можете удалять свои сообщения
Вы не можете голосовать в опросах
Вы не можете прикреплять файлы к сообщениям
Вы не можете скачивать файлы

!ВНИМАНИЕ!
Сайт не предоставляет электронные версии произведений, а занимается лишь коллекционированием и каталогизацией ссылок, присылаемых и публикуемых на форуме нашими читателями. Если вы являетесь правообладателем какого-либо представленного материала и не желаете, чтобы ссылка на него находилась в нашем каталоге, свяжитесь с нами, и мы незамедлительно удалим ее. Файлы для обмена на трекере предоставлены пользователями сайта, и администрация не несет ответственности за их содержание. Просьба не заливать файлы, защищенные авторскими правами, а также файлы нелегального содержания!