Ивановский Торрент трекер
Яндекс.Погода
 

[Цитировать]
димитри37

Книга Судного дня / Doomsday Book
Год выпуска: 2012
Страна: Корея Южная
Киностудия: Gio Entertainment
Жанр: фантастика, драма
Продолжительность: 01:53:21
Перевод: Профессиональный (многоголосый) Лицензия
Субтитры: русский, английский
Оригинальная аудиодорожка: нет
Режиссер: Лим Пхиль Сон / Yim Pil Sung, Ким Чжи Ун / Kim Ji Woon
В ролях: Юн Се А, Пэ Ду На, Пон Чжун Хо, Чин Чжи Хи, Чо Юн Хье, Мин Сун Ким, Джон Д. Ким, Ким Кан У, Ко Чжун Хи, Ли Сын Чжун...
Описание: Три уникальные истории о человеческом самоуничтожении в современную эру высоких технологий. В надежде восстановить гуманное сострадание в наше бесчувственное время, фильм демонстрирует альтернативную сторону подлинного человечества. Вы станете свидетелем мира будущего, где вас ожидает серия неожиданных историй. Все эти истории происходят на Земле.

Качество: HDRip
Формат: AVI
Видео: 720x304 (2.35:1), 23.976 fps, XViD ~ 1447 kbps avg, 0.276 bit/pixel
Аудио: 48 kHz, АС3 6 ch, 384 kbps, русский

MediaInfo

Общее
Полное имя : Kniga.sudnogo.dnya.2012.P.HDRip_[Youtracker]_by_avproh.avi
Формат : AVI
Формат/Информация : Audio Video Interleave
Размер файла : 1,46 Гбайт
Продолжительность : 1 ч. 53 м.
Общий поток : 1840 Кбит/сек
Программа кодирования : VirtualDubModRus 1.5.10.2 (build 2542/release)
Библиотека кодирования : VirtualDubMod build 2542/release
Видео
Идентификатор : 0
Формат : MPEG-4 Visual
Профиль формата : Advanced Simple@L5
Параметр BVOP формата : 1
Параметр QPel формата : Нет
Параметр GMC формата : Без точки перехода
Параметр матрицы формата : Выборочная
Идентификатор кодека : XVID
Идентификатор кодека/Подсказка : XviD
Продолжительность : 1 ч. 53 м.
Битрейт : 1447 Кбит/сек
Ширина : 720 пикселей
Высота : 304 пикселя
Соотношение сторон : 2,35:1
Частота кадров : 23,976 кадра/сек
Цветовое пространство : YUV
Субдискретизация насыщенности : 4:2:0
Битовая глубина : 8 бит
Тип развёртки : Прогрессивная
Метод сжатия : С потерями
Бит/(Пиксели*Кадры) : 0.276
Размер потока : 1,15 Гбайт (79%)
Библиотека кодирования : XviD 65
Аудио
Идентификатор : 1
Формат : AC-3
Формат/Информация : Audio Coding 3
Расширение режима : CM (complete main)
Параметр Endianness формата : Big
Идентификатор кодека : 2000
Продолжительность : 1 ч. 53 м.
Вид битрейта : Постоянный
Битрейт : 384 Кбит/сек
Каналы : 6 каналов
Расположение каналов : Front: L C R, Side: L R, LFE
Частота : 48,0 КГц
Битовая глубина : 16 бит
Метод сжатия : С потерями
Размер потока : 311 Мбайт (21%)
Выравнивание : Разделение по промежуткам
Продолжительность промежутка : 42 мс. (1,00 видеокадр)
Время предзагрузки промежутка : 500 мс.

Скриншоты:

-Источник:
Показать сообщения:    

Текущее время: 21-Сен 09:39

Часовой пояс: UTC - 1


Вы не можете начинать темы
Вы не можете отвечать на сообщения
Вы не можете редактировать свои сообщения
Вы не можете удалять свои сообщения
Вы не можете голосовать в опросах
Вы не можете прикреплять файлы к сообщениям
Вы не можете скачивать файлы

!ВНИМАНИЕ!
Сайт не предоставляет электронные версии произведений, а занимается лишь коллекционированием и каталогизацией ссылок, присылаемых и публикуемых на форуме нашими читателями. Если вы являетесь правообладателем какого-либо представленного материала и не желаете, чтобы ссылка на него находилась в нашем каталоге, свяжитесь с нами, и мы незамедлительно удалим ее. Файлы для обмена на трекере предоставлены пользователями сайта, и администрация не несет ответственности за их содержание. Просьба не заливать файлы, защищенные авторскими правами, а также файлы нелегального содержания!