Важное объявление!
У Нас Все раздачи мультитрекерные, при нуле пиров в релизах, можете смело вставать на закачку!
 
Автор Сообщение

HUNTER

Стаж:
4 года 5 месяцев
Сообщений:
60874

Репутация: 101

[+] [-]
Вне форума [Профиль] [ЛС]

Книга жизни / The Book of Life
Страна: США
Жанр: мультфильм
Продолжительность: 01:35:24
Год выпуска: 2014
Перевод: Любительский (двухголосый закадровый)
Русские субтитры: нет
Режиссёр: Хорхе Р. Гутьеррес / Jorge R. Gutierrez
Роли озвучивали: Диего Луна, Зои Салдана, Ченнинг Татум, Рон Перлман, Кристина Эпплгейт, Айс Кьюб, Кейт дель Кастильо, Гектор Элизондо, Дэнни Трехо, Карлос Аласраки
Описание: В мультфильме описывается романтическая история любви на фоне празднования Дня мертвых в Мексике.Качество: HDRip
Формат: AVI
Видео: Xvid, 720x304, 23.976fps, 1 659 Kbps
Аудио: Dolby AC3, 48000Hz, 6ch, 384kbps
Субтитры: отсутствуют

Подробные технические данные

GeneralComplete name : D:\Kniga.Jizni.2014.P.HDRip.1400MB.uniongang.aviFormat : AVIFormat/Info : Audio Video InterleaveFile size : 1.37 GiBDuration : 1h 35mnOverall bit rate : 2 052 KbpsMovie name : СПАМDirector : 3imeMachineWriting application : VirtualDubMod 1.5.10.2 (build 2540/release)Copyright : UNIONGANG&RUSTORRENTS
VideoID : 0Format : MPEG-4 VisualFormat profile : Advanced Simple@L5Format settings, BVOP : 2Format settings, QPel : NoFormat settings, GMC : No warppointsFormat settings, Matrix : Default (MPEG)Codec ID : XVIDCodec ID/Hint : XviDDuration : 1h 35mnBit rate : 1 659 KbpsWidth : 720 pixelsHeight : 304 pixelsDisplay aspect ratio : 2.35:1Frame rate : 23.976 fpsColor space : YUVChroma subsampling : 4:2:0Bit depth : 8 bitsScan type : ProgressiveCompression mode : LossyBits/(Pixel*Frame) : 0.316Stream size : 1.11 GiB (81%)Writing library : XviD 1.2.1 (UTC 2008-12-04)
AudioID : 1Format : AC-3Format/Info : Audio Coding 3Mode extension : CM (complete main)Format settings, Endianness : BigCodec ID : 2000Duration : 1h 35mnBit rate mode : ConstantBit rate : 384 KbpsChannel(s) : 6 channelsChannel positions : Front: L C R, Side: L R, LFESampling rate : 48.0 KHzBit depth : 16 bitsCompression mode : LossyStream size : 262 MiB (19%)Alignment : Split accross interleavesInterleave, duration : 42 ms (1.00 video frame)Interleave, preload duration : 500 ms

Скриншоты




_________________
Показать сообщения:    

Текущее время: Сегодня 00:23

Часовой пояс: GMT



Вы не можете начинать темы
Вы не можете отвечать на сообщения
Вы не можете редактировать свои сообщения
Вы не можете удалять свои сообщения
Вы не можете голосовать в опросах
Вы не можете прикреплять файлы к сообщениям
Вы не можете скачивать файлы
Наши партнеры: интернет магазин Ивановского трикотажа textilla.ru