Книга джунглей / The Jungle Book (Джон Фавро / Jon Favreau) [2016, Великобритания, США, фэнтези, драма, приключения, семейный, BDRip 720p] Dub (Line) + 2x Sub (Eng) + Original Eng :: Ивановский Торрент трекер
Важное объявление!
У Нас Все раздачи мультитрекерные, при нуле пиров в релизах, можете смело вставать на закачку!
Статистика раздачи
Размер:     |    Зарегистрирован:     |    Скачан:     |   
Нет
 
     
 
 
Автор Сообщение

HUNTER

Стаж:
4 года 11 месяцев
Сообщений:
66116

Репутация: 101

[+] [-]
Вне форума [Профиль] [ЛС]

Книга джунглей / The Jungle Book«The legend will never be the same»
Страна: Великобритания, США
Жанр: фэнтези, драма, приключения, семейный
Год выпуска: 2016
Продолжительность: 01:45:54
Перевод: Профессиональный (дублированный) Line
Cубтитры: английские [Full, SDH]
Оригинальная аудиодорожка: английский
-
Режиссер: Джон Фавро / Jon Favreau
В ролях: Нил Сетхи, Билл Мюррей, Бен Кингсли, Идрис Эльба, Лупита Нионго, Скарлетт Йоханссон, Джанкарло Эспозито, Кристофер Уокен, Гарри Шендлинг, Брайтон Роуз
-
Описание: Это не просто история найденыша, ставшего волчонком и равным среди животных. Это история любви, преданности, смелости, история ученичества и наставничества, когда учитель жизнью отвечает за умения ученика. Ведь Маугли - детеныш человека, а значит, слабее любого щенка. И мудрым учителям: приютившим «лягушонка» волкам, Багире, Балу и Каа, нужно научить своего подопечного выживать в безумно богатых на опасности джунглях, а главное - уберечь от Шерхана, возненавидевшего нового обитателя с момента его появления.
[img]https://rating.kinopoisk.ru/779024.gif[/img]
Тип релиза: BDRip 720p
Контейнер: MKV
Видео: H.264 / NTSC 16:9 / 1280x692 (1,85:1) / 9997 kbps / 23,976 fps / 0.471 bit/pixel / High@L4.1
Аудио 1: Russian / Dolby Digital Audio / 2.0 Ch / 48 kHz / 384 kbps / 16 bit / DUB
Аудио 2: English / Dolby Digital Audio / 5.1 Ch / 48 kHz / 640 kbps / 16 bit / Original
Формат субтитров: softsub (SRT)
Навигация по главам: есть

x264 info

Код:
x264 [info]: frame I:1163 Avg QP:12.33 size:224551
x264 [info]: frame P:40171 Avg QP:14.84 size: 90214
x264 [info]: frame B:111025 Avg QP:15.88 size: 36530
x264 [info]: consecutive B-frames: 5.3% 4.4% 11.9% 26.1% 18.3% 28.6% 2.9% 1.3% 1.3%
encoded 152359 frames, 6.74 fps, 9996.92 kb/s
Job finished at 2016-08-08, 09:24:07. Process took 437 minutes, 22 seconds.

MediaInfo

Код:
Общее
Уникальный идентификатор                 : 227664192067064197763752621547129896590 (0xAB46874A3F384E939BEE84306F277E8E)
Полное имя                               : N:\BDRip 720p\The Jungle Book.2016.BDRip.720p.mkv
Формат                                   : Matroska
Версия формата                           : Version 4 / Version 2
Размер файла                             : 8,15 Гбайт
Продолжительность                        : 1 ч. 45 м.
Общий поток                              : 11,0 Мбит/сек
Название фильма                          : Release for RuTracker © flaSI-I
Дата кодирования                         : UTC 2016-08-08 17:17:04
Программа кодирования                    : mkvmerge v9.3.1 ('Mask Machine') 64bit
Библиотека кодирования                   : libebml v1.3.4 + libmatroska v1.4.5
Видео
Идентификатор                            : 1
Формат                                   : AVC
Формат/Информация                        : Advanced Video Codec
Профиль формата                          : High@L4.1
Параметр CABAC формата                   : Да
Параметр ReFrames формата                : 9 кадров
Идентификатор кодека                     : V_MPEG4/ISO/AVC
Продолжительность                        : 1 ч. 45 м.
Битрейт                                  : 10000 Кбит/сек
Ширина                                   : 1280 пикселей
Высота                                   : 692 пикселя
Соотношение сторон                       : 1,85:1
Режим частоты кадров                     : Постоянный
Частота кадров                           : 23,976 (24000/1001) кадра/сек
Цветовое пространство                    : YUV
Субдискретизация насыщенности            : 4:2:0
Битовая глубина                          : 8 бит
Тип развёртки                            : Прогрессивная
Бит/(Пиксели*Кадры)                      : 0.471
Размер потока                            : 7,40 Гбайт (91%)
Библиотека кодирования                   : x264 core 146 r2538 121396c
Настройки программы                      : cabac=1 / ref=9 / deblock=1:-3:-3 / analyse=0x3:0x133 / me=umh / subme=10 / psy=1 / psy_rd=1.00:0.00 / mixed_ref=1 / me_range=32 / chroma_me=1 / trellis=2 / 8x8dct=1 / cqm=0 / deadzone=21,11 / fast_pskip=0 / chroma_qp_offset=-2 / threads=6 / lookahead_threads=1 / sliced_threads=0 / nr=0 / decimate=0 / interlaced=0 / bluray_compat=0 / constrained_intra=0 / bframes=8 / b_pyramid=2 / b_adapt=2 / b_bias=0 / direct=3 / weightb=1 / open_gop=0 / weightp=2 / keyint=250 / keyint_min=24 / scenecut=40 / intra_refresh=0 / rc=2pass / mbtree=0 / bitrate=10000 / ratetol=1.0 / qcomp=0.60 / qpmin=0 / qpmax=69 / qpstep=4 / cplxblur=20.0 / qblur=0.5 / ip_ratio=1.35 / pb_ratio=1.25 / aq=3:0.80
Язык                                     : English
Default                                  : Да
Forced                                   : Нет
Аудио #1
Идентификатор                            : 2
Формат                                   : AC-3
Формат/Информация                        : Audio Coding 3
Расширение режима                        : CM (complete main)
Параметр Endianness формата              : Big
Идентификатор кодека                     : A_AC3
Продолжительность                        : 1 ч. 45 м.
Вид битрейта                             : Постоянный
Битрейт                                  : 384 Кбит/сек
Каналы                                   : 2 канала
Расположение каналов                     : Front: L R
Частота                                  : 48,0 КГц
Частота кадров                           : 31,250 кадров/сек (1536 spf)
Метод сжатия                             : С потерями
Размер потока                            : 291 Мбайт (3%)
Заголовок                                : DUB / LiNE
Язык                                     : Russian
Default                                  : Да
Forced                                   : Нет
Аудио #2
Идентификатор                            : 3
Формат                                   : AC-3
Формат/Информация                        : Audio Coding 3
Расширение режима                        : CM (complete main)
Параметр Endianness формата              : Big
Идентификатор кодека                     : A_AC3
Продолжительность                        : 1 ч. 45 м.
Вид битрейта                             : Постоянный
Битрейт                                  : 640 Кбит/сек
Каналы                                   : 6 каналов
Расположение каналов                     : Front: L C R, Side: L R, LFE
Частота                                  : 48,0 КГц
Частота кадров                           : 31,250 кадров/сек (1536 spf)
Метод сжатия                             : С потерями
Размер потока                            : 485 Мбайт (6%)
Заголовок                                : Original
Язык                                     : English
Default                                  : Нет
Forced                                   : Нет
Текст #1
Идентификатор                            : 4
Формат                                   : UTF-8
Идентификатор кодека                     : S_TEXT/UTF8
Идентификатор кодека/Информация          : UTF-8 Plain Text
Продолжительность                        : 1 ч. 44 м.
Битрейт                                  : 44 бит/сек
Count of elements                        : 1218
Размер потока                            : 34,1 Кбайт (0%)
Заголовок                                : Original
Язык                                     : English
Default                                  : Нет
Forced                                   : Нет
Текст #2
Идентификатор                            : 5
Формат                                   : UTF-8
Идентификатор кодека                     : S_TEXT/UTF8
Идентификатор кодека/Информация          : UTF-8 Plain Text
Продолжительность                        : 1 ч. 44 м.
Битрейт                                  : 49 бит/сек
Count of elements                        : 1410
Размер потока                            : 38,3 Кбайт (0%)
Заголовок                                : Original / SDH
Язык                                     : English
Default                                  : Нет
Forced                                   : Нет
Меню
00:00:00.000                             : en:Opening Title
00:00:48.214                             : en:Running with Wolves
00:05:15.315                             : en:Water Truce
00:09:02.458                             : en:A Warning
00:12:42.178                             : en:Mowgli Leaves the Pack
00:16:34.451                             : en:Shere Khan Attacks
00:21:20.028                             : en:Akela's Plea
00:27:15.133                             : en:Kaa
00:35:04.143                             : en:Baloo's Honey
00:43:21.724                             : en:The Mowgli Way
00:48:05.132                             : en:"The Bare Necessities"
00:53:29.247                             : en:Saving the Elephant
00:58:03.271                             : en:Monkey Abduction
01:05:46.442                             : en:"I Wan'na Be Like You"
01:10:35.522                             : en:Monkey Escape
01:17:01.325                             : en:The Red Flower
01:20:48.927                             : en:The Law of the Jungle
01:24:46.539                             : en:The Final Battle
01:30:32.969                             : en:Celebration
01:35:53.205                             : en:End Credits

Скриншоты


_________________
Показать сообщения:    

Текущее время: Сегодня 14:14

Часовой пояс: GMT



Вы не можете начинать темы
Вы не можете отвечать на сообщения
Вы не можете редактировать свои сообщения
Вы не можете удалять свои сообщения
Вы не можете голосовать в опросах
Вы не можете прикреплять файлы к сообщениям
Вы не можете скачивать файлы