Ивановский Торрент трекер
Яндекс.Погода
 

[Цитировать]
HUNTER

Книга джунглей / The Jungle Book
«Meet Mowgli, the man cub. Baloo thinks he'll make a darn good bear. Shere Khan thinks he'll make a darn good meal»
- Страна: США
Жанр: мультфильм, мюзикл, приключения, семейный
Продолжительность: 01:18:27
Год выпуска: 1967
Перевод: Профессиональный (дублированный)
Русские субтитры: нет-Режиссёр:
Вольфганг Райтерман / Wolfgang Reitherman-Роли озвучивали:
Фил Харрис, Себастьян Кабот, Брюс Рейтерман, Джордж Сэндерс, Стерлинг Холлоуэй, Луи Прима, Дж. Пэт О’Мэлли, Верна Фелтон, Клинт Ховард, Чад Стюарт-Описание:
Выращенный волками человеческий детеныш Маугли по решению стаи должен вернуться к людям, чтобы не попасть в лапы к тигру-людоеду Шер Хану. Вместе с пантерой Багирой Маугли отправляется в путь, навстречу неожиданным знакомствам и опасным приключениям. Он подружится с беспечным медведем Балу, будет похищен обезьянами, станет пленником коварного удава Каа, и еще много чего случится со смелым мальчиком, который по словам самого Киплинга «любит дергать смерть за усы».-Сэмпл | КиноПоиск | IMDb-Качество: BDRip | исх. [Blu-ray Disc]
Формат: AVI
Видео: 640x368 (1.73:9), 23.976 fps, XviD build 65 ~1192 kbps avg, 0.211 bit/pixel
Аудио: 48.0 kHz, MPEG Layer 3, 2 ch, ~128.00 kbps avg | Dub
Субтитры: Отсутствуют
Размер: 745.72 Mb (1/6 DVD-R)
-Подробные технические данные
ОбщееПолное имя : A:\Фильмы\THE JUNGLE BOOK.BDRip.XviD.745Mb.mp3.aviФормат : AVIФормат/Информация : Audio Video InterleaveРазмер файла : 745 МбайтПродолжительность : 1 ч. 18 м.Общий поток : 1329 Кбит/секПрограмма кодирования : VirtualDubMod 1.5.10.2 (build 2540/release)Библиотека кодирования : VirtualDubMod build 2540/release
ВидеоИдентификатор : 0Формат : MPEG-4 VisualПрофиль формата : Advanced Simple@L5Параметр BVOP формата : 1Параметр QPel формата : НетПараметр GMC формата : Без точки переходаПараметр матрицы формата : ВыборочнаяИдентификатор кодека : XVIDИдентификатор кодека/Подсказка : XviDПродолжительность : 1 ч. 18 м.Битрейт : 1192 Кбит/секШирина : 640 пикселейВысота : 368 пикселейСоотношение сторон : 1,739Частота кадров : 23,976 кадра/секЦветовое пространство : YUVСубдискретизация насыщенности : 4:2:0Битовая глубина : 8 битТип развёртки : ПрогрессивнаяМетод сжатия : С потерямиБит/(Пиксели*Кадры) : 0.211Размер потока : 669 Мбайт (90%)Библиотека кодирования : XviD 65
АудиоИдентификатор : 1Формат : MPEG AudioВерсия формата : Version 1Профиль формата : Layer 3Идентификатор кодека : 55Идентификатор кодека/Подсказка : MP3Продолжительность : 1 ч. 18 м.Вид битрейта : ПостоянныйБитрейт : 128 Кбит/секКаналы : 2 каналаЧастота : 48,0 КГцМетод сжатия : С потерямиРазмер потока : 71,8 Мбайт (10%)Выравнивание : Соединение по промежуткамПродолжительность промежутка : 42 мс. (1,00 видеокадр)Время предзагрузки промежутка : 504 мс.Библиотека кодирования : LAME3.99rНастройки программы : -m s -V 4 -q 2 -lowpass 17 -b 128
Сравнение
http://screenshotcomparison.com/comparison/74333/picture:1 | http://rutracker.org/forum/viewtopic.php?t=3114523
Скриншоты


Показать сообщения:    

Текущее время: 14-Дек 21:11

Часовой пояс: UTC ± 0


Вы не можете начинать темы
Вы не можете отвечать на сообщения
Вы не можете редактировать свои сообщения
Вы не можете удалять свои сообщения
Вы не можете голосовать в опросах
Вы не можете прикреплять файлы к сообщениям
Вы не можете скачивать файлы

!ВНИМАНИЕ!
Сайт не предоставляет электронные версии произведений, а занимается лишь коллекционированием и каталогизацией ссылок, присылаемых и публикуемых на форуме нашими читателями. Если вы являетесь правообладателем какого-либо представленного материала и не желаете, чтобы ссылка на него находилась в нашем каталоге, свяжитесь с нами, и мы незамедлительно удалим ее. Файлы для обмена на трекере предоставлены пользователями сайта, и администрация не несет ответственности за их содержание. Просьба не заливать файлы, защищенные авторскими правами, а также файлы нелегального содержания!