Важное объявление!
У Нас Все раздачи мультитрекерные, при нуле пиров в релизах, можете смело вставать на закачку!
 
Автор Сообщение

HUNTER

Стаж:
4 года 7 месяцев
Сообщений:
61508

Репутация: 101

[+] [-]
Вне форума [Профиль] [ЛС]

Книга Джунглей / Jungle Book
Страна: США, Япония
Жанр: Мультфильм, приключения, семейный
Продолжительность: 00:49:39
Год выпуска: 1995
Перевод: Профессиональный (дублированный) (Варус Видео)
Русские субтитры: нет
Режиссёр: Тошиюки Хирума / Toshiyuki Hiruma-Описание: Одноимённая экранизация повести Киплинга о мальчике Маугли, воспитанном волчьей стаей. С помощью своих учителей - добродушного медведя Балу, мудрой пантеры Багиры и старого удава Каа, Маугли учится закону джунглей и становится настоящим охотником, способным защитить себя и своих друзей от опасности и победить коварного тигра Шер Хана.-Доп. материалы: отсутствуют
Качество: DVD5
Формат: DVD-video
Видео: MPEG-2 PAL, 720x576, 25fps, ~8000 Kb/s
Аудио: AC3, 48khz, 2ch, 192 kb/s, Русский
Субтитры: отсутствуют
Релиз:

DVDInfo

Title: Jungle Book 1995 DVD5Size: 2.90 Gb ( 3 039 734,00 KBytes ) - DVD-5Enabled regions: 1, 2, 3, 4, 5, 6, 7, 8
VTS_01 : Play Length: 00:49:20+00:00:19 Video: PAL 4:3 (720x576) VBR Audio: Russian (Dolby AC3, 2 ch)
* Menus Information *
VIDEO_TS MenuVideo: PAL 4:3 (720x576) VBRAudio: Not specified (Dolby AC3, 6 ch)English Language Unit : Title Menu
VTS_01 MenuVideo: PAL 4:3 (720x576) VBRAudio: Not specified (Dolby AC3, 2 ch)English Language Unit : Root Menu Chapter (PTT) Menu

MediaInfo

ОбщееПолное имя : E:\MULTFILMS\Jungle Book 1995 DVD5\VIDEO_TS\VTS_01_1.VOBФормат : MPEG-PSРазмер файла : 1024 МбайтПродолжительность : 17 м.Режим общего битрейта : ПеременныйОбщий поток : 8334 Кбит/сек
ВидеоИдентификатор : 224 (0xE0)Формат : MPEG VideoВерсия формата : Version 2Профиль формата : Main@MainПараметр BVOP формата : ДаПараметр матрицы формата : По умолчаниюПараметр GOP формата : M=3, N=13Продолжительность : 17 м.Вид битрейта : ПеременныйБитрейт : 8000 Кбит/секШирина : 720 пикселейВысота : 576 пикселейСоотношение сторон : 4:3Частота кадров : 25,000 кадров/секСтандарт вещания : PALЦветовое пространство : YUVСубдискретизация насыщенности : 4:2:0Битовая глубина : 8 битТип развёртки : ЧересстрочнаяПорядок развёртки : Верхнее поле первоеМетод сжатия : С потерямиБит/(Пиксели*Кадры) : 0.772Временной код первого кадра : 00:04:03:00Оригинал временного кода : Group of pictures headerРазмер потока : 980 Мбайт (96%)Основные цвета : BT.601 PALХарактеристики трансфера : BT.470 System B, BT.470 System GКоэффициенты матрицы : BT.601
АудиоИдентификатор : 189 (0xBD)-128 (0x80)Формат : AC-3Формат/Информация : Audio Coding 3Расширение режима : CM (complete main)Параметр Endianness формата : BigРежим смешивания : DVD-VideoПродолжительность : 17 м.Вид битрейта : ПостоянныйБитрейт : 192 Кбит/секКаналы : 2 каналаРасположение каналов : Front: L RЧастота : 48,0 КГцБитовая глубина : 16 битМетод сжатия : С потерямиРазмер потока : 23,6 Мбайт (2%)

Скриншоты меню

Скриншоты


Информация по сборке

Диск собран из испанского DVD. Испанская аудиодорожка заменена на русскую, взятую из этой раздачи (спасибо bora86bora)
Используемый софт:
PgcDemux (Разборка диска)
BeSweet (Распаковка звука в формат WAV)
Adobe Audition (Синхронизация аудио)
Minnetonka Audio (Конвертация звука в формат Dolby AC3)
MuxMan (Сборка диска)
Adobe Photoshop (Редактирование пунктов меню)
DVDSubEdit (Редактирование подсветки кнопок меню)
DVD Remake Pro (Реавторинг DVD)

_________________
Показать сообщения:    

Текущее время: Сегодня 05:18

Часовой пояс: GMT



Вы не можете начинать темы
Вы не можете отвечать на сообщения
Вы не можете редактировать свои сообщения
Вы не можете удалять свои сообщения
Вы не можете голосовать в опросах
Вы не можете прикреплять файлы к сообщениям
Вы не можете скачивать файлы
Наши партнеры: интернет магазин Ивановского трикотажа textilla.ru