Важное объявление!
У Нас Все раздачи мультитрекерные, при нуле пиров в релизах, можете смело вставать на закачку!
Статистика раздачи
Размер:     |    Зарегистрирован:     |    Скачан:     |   
Нет
 
     
 
 
Автор Сообщение

HUNTER

Стаж:
5 лет 1 месяц
Сообщений:
68426

Репутация: 101

[+] [-]
Вне форума [Профиль] [ЛС]

Книга джунглей 2 / The Jungle Book 2
Страна: США, Австралия
Жанр: мультфильм, мюзикл, приключения, семейный
Продолжительность: 01:12:16
Год выпуска: 2003
Перевод: Авторский (одноголосый закадровый) Сергей Визгунов
Русские субтитры: нет
Режиссёр: Стив Тренберт / Steve Trenbirth
Роли озвучивали: Джон Гудман, Хэйли Джоэл Осмент, Мэй Уитман, Коннор Фанк, Боб Джоулз, Тони Джей, Джон Рис-Дэвис, Джим Каммингс, Фил Коллинз, Джефф Беннетт
Описание: Продолжение невероятной истории об удивительном мальчике, выросшем в джунглях. После того, как Маугли вернулся жить в настоящую человеческую семью, он обрел настоящую дружбу и любовь, но его прошлая жизнь в джунглях продолжает напоминать о себе. Малыш соскучился по своим друзьям, оставшимся в лесу. Друзья Маугли во главе с веселым мишкой Балу тоже очень скучают по своему «лягушонку».
Но Балу далеко не единственный, кто жаждет увидать «любимчика джунглей»: тигр Шер Хан жаждет поквитаться с дерзким выскочкой. Кто встретит Маугли в джунглях первым — старые друзья или тигр-людоед? Но нашему маленькому герою не привыкать к опасности, ведь из самых сложных ситуаций он находит самый смешной и оригинальный выход!

Качество: HDRip [BDRip 1080p]
Формат: AVI
Видео: Xvid, 704x416 (1.69:1), 23.976 fps, XviD build 73 ~1234 kbps avg, 0.17 bit/pixel
Аудио: АС3, 48 kHz, AC3 Dolby Digital, 2/0 (L,R) ch, ~192 kbps за Визгунова спасибо d_rocker
Субтитры: отсутствуют

Доп.инфо
с 6-й по 13-ю секунду небольшая вставка с многоголосого перевода
Подробные технические данные
Полное имя : Kniga.dzhunglej.2.2003.HDRip.aviФормат : AVIФормат/Информация : Audio Video InterleaveРазмер файла : 742 МбайтПродолжительность : 1 ч. 12 м.Общий поток : 1435 Кбит/секПрограмма кодирования : VirtualDubMod 1.5.10.2 (build 2540/release)
ВидеоИдентификатор : 0Формат : MPEG-4 VisualПрофиль формата : Advanced Simple@L5Параметр BVOP формата : 2Параметр QPel формата : НетПараметр GMC формата : Без точки переходаПараметр матрицы формата : Default (H.263)Идентификатор кодека : XVIDИдентификатор кодека/Подсказка : XviDПродолжительность : 1 ч. 12 м.Битрейт : 1234 Кбит/секШирина : 704 пикселяВысота : 416 пикселейСоотношение сторон : 1,692Частота кадров : 23,976 кадра/секЦветовое пространство : YUVСубдискретизация насыщенности : 4:2:0Битовая глубина : 8 битТип развёртки : ПрогрессивнаяМетод сжатия : С потерямиБит/(Пиксели*Кадры) : 0.176Размер потока : 638 Мбайт (86%)Библиотека кодирования : XviD 73
АудиоИдентификатор : 1Формат : AC-3Формат/Информация : Audio Coding 3Расширение режима : CM (complete main)Параметр Endianness формата : BigИдентификатор кодека : 2000Продолжительность : 1 ч. 12 м.Вид битрейта : ПостоянныйБитрейт : 192 Кбит/секКаналы : 2 каналаРасположение каналов : Front: L RЧастота : 48,0 КГцБитовая глубина : 16 битМетод сжатия : С потерямиРазмер потока : 99,1 Мбайт (13%)Выравнивание : Разделение по промежуткамПродолжительность промежутка : 42 мс. (1,00 видеокадр)Время предзагрузки промежутка : 500 мс.
Скриншоты

_________________
Показать сообщения:    

Текущее время: Сегодня 01:44

Часовой пояс: GMT



Вы не можете начинать темы
Вы не можете отвечать на сообщения
Вы не можете редактировать свои сообщения
Вы не можете удалять свои сообщения
Вы не можете голосовать в опросах
Вы не можете прикреплять файлы к сообщениям
Вы не можете скачивать файлы