Важное объявление!
У Нас Все раздачи мультитрекерные, при нуле пиров в релизах, можете смело вставать на закачку!
 
Автор Сообщение

HUNTER

Стаж:
4 года 10 месяцев
Сообщений:
65473

Репутация: 101

[+] [-]
Вне форума [Профиль] [ЛС]

Ключи к успеху. Вадим Шлахтер и Наталья Грэйс (24 июня 2013)
Страна: Россия
Тематика: Психология
Тип раздаваемого материала: Телепередача
Продолжительность: 00:24:45
Год выпуска: 2013
Язык: Русский
Перевод: Не требуется
Язык субтитров: нет
Описание: Вадим Шлахтер, КПН, тренер личной эффективности в гостях у Натальи Грэйс в программе "Ключи к успеху".
Доп. информация: Эфир: 24 июня 2013.
Качество: SATRip-AVC
Формат: MP4
Видео кодек: H.264
Аудио кодек: AAC
Видео: H.264, 704x544, 25 fps, 775kbps
Аудио: AAC 44100Hz mono 75kbps

MedioInfo

Общее
Полное имя : F:\Шлахтериана\Ключи к успеху. Вадим Шлахтер и Наталья Грэйс. 24 июня 2013.mp4
Формат : MPEG-4
Профиль формата : Base Media
Идентификатор кодека : isom
Размер файла : 152 Мбайт
Продолжительность : 24 м.
Общий поток : 856 Кбит/сек
Программа кодирования : Lavf54.29.104
Видео
Идентификатор : 1
Формат : AVC
Формат/Информация : Advanced Video Codec
Профиль формата : High@L3.0
Параметр CABAC формата : Да
Параметр ReFrames формата : 4 кадры
Идентификатор кодека : avc1
Идентификатор кодека/Информация : Advanced Video Coding
Продолжительность : 24 м.
Вид битрейта : Переменный
Битрейт : 768 Кбит/сек
Ширина : 704 пикс.
Высота : 544 пикс.
Соотношение сторон : 1,294
Режим частоты кадров : Постоянный
Частота кадров : 25,000 кадр/сек
Цветовое пространство : YUV
Подвыборка цветности : 4:2:0
Битовая глубина : 8 бит
Тип развёртки : Прогрессивная
Бит/(Пиксели*Кадры) : 0.080
Размер потока : 137 Мбайт (91%)
Библиотека кодирования : x264 core 128
Настройки программы : cabac=1 / ref=3 / deblock=1:0:0 / analyse=0x3:0x133 / me=hex / subme=9 / psy=1 / psy_rd=1.00:0.00 / mixed_ref=1 / me_range=16 / chroma_me=1 / trellis=2 / 8x8dct=1 / cqm=0 / deadzone=21,11 / fast_pskip=1 / chroma_qp_offset=-2 / threads=4 / lookahead_threads=1 / sliced_threads=0 / nr=0 / decimate=1 / interlaced=0 / bluray_compat=0 / constrained_intra=0 / bframes=3 / b_pyramid=2 / b_adapt=1 / b_bias=0 / direct=1 / weightb=1 / open_gop=0 / weightp=0 / keyint=25 / keyint_min=13 / scenecut=40 / intra_refresh=0 / rc_lookahead=40 / rc=abr / mbtree=1 / bitrate=768 / ratetol=1.0 / qcomp=0.60 / qpmin=10 / qpmax=40 / qpstep=4 / vbv_maxrate=921 / vbv_bufsize=1835 / nal_hrd=none / ip_ratio=1.40 / aq=1:1.00
Аудио
Идентификатор : 2
Формат : AAC
Формат/Информация : Advanced Audio Codec
Профиль формата : LC
Идентификатор кодека : 40
Продолжительность : 24 м.
Вид битрейта : Переменный
Битрейт : 76,0 Кбит/сек
Максимальный битрейт : 921 Кбит/сек
Канал(ы) : 1 канал
Расположение каналов : Front: C
Частота : 44,1 КГц
Метод сжатия : С потерями
Размер потока : 13,5 Мбайт (9%)

Скриншоты

Фоторепортаж


_________________
Показать сообщения:    

Текущее время: Сегодня 09:58

Часовой пояс: GMT



Вы не можете начинать темы
Вы не можете отвечать на сообщения
Вы не можете редактировать свои сообщения
Вы не можете удалять свои сообщения
Вы не можете голосовать в опросах
Вы не можете прикреплять файлы к сообщениям
Вы не можете скачивать файлы