Важное объявление!
У Нас Все раздачи мультитрекерные, при нуле пиров в релизах, можете смело вставать на закачку!
 
Автор Сообщение

HUNTER

Стаж:
4 года 8 месяцев
Сообщений:
62003

Репутация: 101

[+] [-]
Вне форума [Профиль] [ЛС]

Клуб Счастливых Женщин и А. Колосов - Видео-тренинг: Женщина-магнит. Как понравиться мужчине, став центром его внимания, мыслей и желаний
Страна: Россия
Год выпуска: 2013
Продолжительность: 1.52.00
Перевод: Студийный (одноголосый закадровый)
Язык: Русский
Описание: Если Вы хотите:
✔обратить на себя внимание интересного мужчины,
✔перестать быть для окружающих мужчин «рубахой-парнем» и выглядеть в их глазах притягательной женщиной,
✔влюбиться самой и влюблять в себя мужчину легко и без принуждения,
✔стать для любимого центром внимания и сохранять вашу любовь долгие годы,
✔вернуть былую страсть в уже сложившиеся отношения,
✔научиться любить открыто, с душой, без страданий и ревности
✔и получать такую же порцию любви от своего партнера...
заберите эту программу, как энциклопедию своего Личного Счастья
Посмотрите видео-тренинг и Вы научитесь:
✔Любить и ценить в первую очередь саму себя
✔Производить сногсшибательное впечатление при первой встрече и грамотно начинать отношения с достойным мужчиной
✔Влюбляться в мужчину безболезненно и не попадать в любовную зависимость от отношений
✔Пробуждать в желанном мужчине вулкан страстей, становиться для него единственным центром внимания раз и навсегда
✔Управлять впечатлениями, мыслями и желаниями своего любимого без усилий и совершенно незаметно для него
✔Каждый раз возрождать затухающую страсть и ощущение влюбленности в паре с любимым человеком
Доп. информация: Александр Колосов – известный психолог, психотерапевт, консультант по налаживанию успешных взаимоотношений с мужчинами, созданию семьи и решению конфликтов с собой и с другими людьми. Автор и ведущий многочисленных тренингов и участник различных телепередач.
Окончил Московский педагогический университет, факультет практической психологии и психотерапии, курсы по эриксоновскому гипнозу и НЛП в Институте психотерапии и клинической психологии, курсы по краткосрочной психотерапии и клиническому гипнозу в Институте клинического гипноза российской психотерапевтической ассоциации. Обучался гештальт-терапии в Московском институте гештальта и психодрамы и школе экзистенциально–гуманистической психотерапии и консультирования. Александр Колосов прошел обучение в психотерапевтической мастерской Г.Тимошенко. Владеет синтез-технологией Н.Козлова и причинной диагностикой А.Свияша (работал ведущим тренингов в этих центрах).
Качество видео: DVD
Формат видео: WMV

MediaInfo

Видео
Идентификатор : 2
Формат : VC-1
Профиль формата : MP@ML
Идентификатор кодека : WMV3
Идентификатор кодека/Информация : Windows Media Video 9
Идентификатор кодека/Подсказка : WMV3
Описание кодека : Windows Media Video 9 - Professional
Продолжительность : 1 ч. 51 м.
Вид битрейта : Переменный
Битрейт : 1500 Кбит/сек
Ширина : 720 пикселей
Высота : 576 пикселей
Соотношение сторон : 5:4
Частота кадров : 25,000 кадров/сек
Стандарт вещания : PAL
Цветовое пространство : YUV
Субдискретизация насыщенности : 4:2:0
Битовая глубина : 8 бит
Тип развёртки : Прогрессивная
Метод сжатия : С потерями
Бит/(Пиксели*Кадры) : 0.145
Размер потока : 1,17 Гбайт (93%)
Язык : Russian
NumberOfFrames : 167983
Аудио
Идентификатор : 1
Формат : WMA
Версия формата : Version 2
Идентификатор кодека : 161
Идентификатор кодека/Информация : Windows Media Audio
Описание кодека : Windows Media Audio 9.2 - 96 kbps, 48 kHz, stereo 2-pass VBR
Продолжительность : 1 ч. 51 м.
Вид битрейта : Переменный
Битрейт : 96,1 Кбит/сек
Каналы : 2 канала
Частота : 48,0 КГц
Битовая глубина : 16 бит
Размер потока : 77,0 Мбайт (6%)
Язык : Russian
NumberOfFrames : 19701

Скриншоты


_________________
Показать сообщения:    

Текущее время: Сегодня 10:20

Часовой пояс: GMT



Вы не можете начинать темы
Вы не можете отвечать на сообщения
Вы не можете редактировать свои сообщения
Вы не можете удалять свои сообщения
Вы не можете голосовать в опросах
Вы не можете прикреплять файлы к сообщениям
Вы не можете скачивать файлы
Наши партнеры: интернет магазин Ивановского трикотажа textilla.ru