Ивановский Торрент трекер
Яндекс.Погода
 

[Цитировать]
димитри37

Клуб Микки МаусаВолшебник страны Дизз«Join the search for fun!» Название: Клуб Микки Мауса: Волшебник страны Дизз
Оригинальное название: Mickey Mouse Clubhouse: The wizard of Dizz
Год выпуска: 2013
Страна: США
Киностудия: Walt Disney Television Animation
Жанр: мультфильм, комедия, семейный
Продолжительность: 00:50:52 + 2 * 00:23:04 + 5 * 00:02:56
Перевод: Профессиональный (полное дублирование)
Субтитры: нет
Режиссер: Келли Уорд / Kelly Ward, Шери Поллак / Sherie Pollack, Брони Ликоманов / Broni Likomanov...
Озвучивали: Тони Ансельмо, Билл Фармер, Тресс МакНилл, Расси Тейлор, Уэйн Оллвэйн, Джим Каммингс, Кори Бертон, Эйприл Уинчелл, Фрэнк Уэлкер, Уилл Райан...
Дублировали: Константин Петров, Михаил Хрусталев, Сергей Бзыгу, Снежина Копрова, Сауле Искакова...
Описание: Микки вызывает клуб заклинанием, а затем идёт выполнять определенную задачу. В ходе её выполнения маленький зритель учиться считать, различать формы, размер, цвета и т. п. В особо сложных случаях Микки зовёт Подручного и с помощью Маусструмента решает загадку. После решение задачи Микки и его друзья танцуют особый Маустанец (очень редко бывает кто-то ещё). После они уходят танцуя, а Микки обещает вернуться.

Качество: DVDRip-AVC (DVD9 R5)
Формат: MKV
Видеокодек: AVC H264
Аудиокодек: AC3
Видео: 720x576@1024x576 (16:9), 25.000 fps, H264 ~ 2006 kbps avg, 0.193 bit/pixel
Аудио: 48 kHz, Dolby AC3 2.0 192 kbps, русский

Серии

01. Волшебник страны Дизз / The wizard of Dizz
02. Золотой петушок / The golden Boo Boo
03. Гуфи пропал / Goofi's gone
Бонусы:
04. Бантики-цветочки
05. Уроки танцев
06. Банто-робот
07. Воздушная тревога
08. Чп на дефиле

MediaInfo

General
Complete name : Klub.Mikki.Mausa.Volshebnik.strany.Dizz.2013.D.DVDRip-AVC_[Youtracker]_by_avproh�1.mkv
Format : Matroska
Format version : Version 4 / Version 2
File size : 801 MiB
Duration : 50mn 52s
Overall bit rate : 2 201 Kbps
Encoded date : UTC 2013-06-07 20:58:10
Writing application : mkvmerge v6.2.0 ('Promised Land') built on Apr 28 2013 12:22:01
Writing library : libebml v1.3.0 + libmatroska v1.4.0
Video
ID : 1
Format : AVC
Format/Info : Advanced Video Codec
Format profile : High@L4.1
Format settings, CABAC : Yes
Format settings, ReFrames : 11 frames
Codec ID : V_MPEG4/ISO/AVC
Duration : 50mn 52s
Bit rate : 2 006 Kbps
Width : 720 pixels
Height : 576 pixels
Display aspect ratio : 16:9
Frame rate : 25.000 fps
Standard : PAL
Color space : YUV
Chroma subsampling : 4:2:0
Bit depth : 8 bits
Scan type : Progressive
Bits/(Pixel*Frame) : 0.193
Stream size : 715 MiB (89%)
Writing library : x264 core 130 r2273 b3065e6
Encoding settings : cabac=1 / ref=11 / deblock=1:-2:-1 / analyse=0x3:0x113 / me=umh / subme=9 / psy=1 / psy_rd=1.00:0.20 / mixed_ref=1 / me_range=32 / chroma_me=1 / trellis=1 / 8x8dct=1 / cqm=0 / deadzone=21,11 / fast_pskip=0 / chroma_qp_offset=-3 / threads=6 / lookahead_threads=1 / sliced_threads=0 / nr=0 / decimate=0 / interlaced=0 / bluray_compat=0 / constrained_intra=0 / bframes=8 / b_pyramid=2 / b_adapt=2 / b_bias=0 / direct=3 / weightb=1 / open_gop=0 / weightp=2 / keyint=250 / keyint_min=25 / scenecut=40 / intra_refresh=0 / rc_lookahead=60 / rc=2pass / mbtree=1 / bitrate=2006 / ratetol=1.0 / qcomp=0.60 / qpmin=0 / qpmax=69 / qpstep=4 / cplxblur=20.0 / qblur=0.5 / ip_ratio=1.40 / aq=1:1.00
Language : English
Default : Yes
Forced : No
Audio
ID : 2
Format : AC-3
Format/Info : Audio Coding 3
Format profile : Dolby Digital
Mode extension : CM (complete main)
Codec ID : A_AC3
Duration : 50mn 52s
Bit rate mode : Constant
Bit rate : 192 Kbps
Channel(s) : 2 channels
Channel positions : Front: L R
Sampling rate : 48.0 KHz
Bit depth : 16 bits
Compression mode : Lossy
Stream size : 69.9 MiB (9%)
Language : Russian
Default : Yes
Forced : No

Скриншоты






Показать сообщения:    

Текущее время: 18-Дек 12:59

Часовой пояс: UTC ± 0


Вы не можете начинать темы
Вы не можете отвечать на сообщения
Вы не можете редактировать свои сообщения
Вы не можете удалять свои сообщения
Вы не можете голосовать в опросах
Вы не можете прикреплять файлы к сообщениям
Вы не можете скачивать файлы

!ВНИМАНИЕ!
Сайт не предоставляет электронные версии произведений, а занимается лишь коллекционированием и каталогизацией ссылок, присылаемых и публикуемых на форуме нашими читателями. Если вы являетесь правообладателем какого-либо представленного материала и не желаете, чтобы ссылка на него находилась в нашем каталоге, свяжитесь с нами, и мы незамедлительно удалим ее. Файлы для обмена на трекере предоставлены пользователями сайта, и администрация не несет ответственности за их содержание. Просьба не заливать файлы, защищенные авторскими правами, а также файлы нелегального содержания!