Важное объявление!
У Нас Все раздачи мультитрекерные, при нуле пиров в релизах, можете смело вставать на закачку!
 
Автор Сообщение

HUNTER

Стаж:
4 года 8 месяцев
Сообщений:
62068

Репутация: 101

[+] [-]
Вне форума [Профиль] [ЛС]

Клуб «Завтрак» / Клуб выходного дня / The Breakfast Club
Год выпуска: 1985
Страна: США
Жанр: драма
Продолжительность: 01:36:58
Перевод №1: профессиональный многоголосый закадровый (R5)
Перевод №2: профессиональный многоголосый закадровый (СТС)
Перевод №3: авторский одноголосный закадровый (Андрей Дольский)
Перевод №4: авторский одноголосный закадровый (Юрий Живов)
Перевод №5: одноголосный закадровый (Михаил kyberpunk Яроцкий)
Cубтитры: русские, английские
Оригинальная аудиодорожка: английская
Оглавление: 18 англоязычных глав
Режиссёр: Джон Хьюз /John Hughes/
В ролях: Эмилио Эстевес /Emilio Estevez/, Молли Рингуолд /Molly Ringwald/, Джадд Нельсон /Judd Nelson/, Энтони Майкл Холл /Anthony Michael Hall/, Элли Шиди /Ally Sheedy/, Пол Глисон /Paul Gleason/, Джон Капелос /John Kapelos/
Описание:
Пятеро школьников в наказание за проступки вынуждены приехать в школу в выходной день и написать сочинение «Кем вы себя представляете?» Молодым людям с большим трудом удается разобраться в своих проблемах…
Дополнительная информация:
IMDB User Rating→: 7.9/10 (218,151 votes)
Рейтинг фильма КиноПоиск.Ru→: 8.086 (32 961 голоса)
  • Рип с нового сорса (30th Anniversary Remastered Edition). Посмотреть сравнения со старым изданием можно, например, здесь;
  • За перевод СТС спасибо yangus19, за Дольского — alenavova (оцифровка дорожки с VHS) и JeRrS1989 (работа со звуком);
  • Перевод Яроцкого доступен благодаря slava_irish, работа со звуком — Perevodman;
  • В переводе Яроцкого и субтитрах Uncle KiLler присутствует ненормативная лексика. В переводе Живова имеется одно матерное слово (представлено в сэмпле).
    Качество: BDRip (by Friday@EbP)
    Контейнер: MKV
    Видеопоток: 1280x692p, 23.976 fps, x264 ~10193 kbps
    Аудиопоток №1 (RUS): DD 5.1, 48 kHz, 448 kbps | профессиональный многоголосый закадровый (R5)
    Аудиопоток №2 (RUS): DD 5.1, 48 kHz, 448 kbps | профессиональный многоголосый закадровый (СТС)
    Аудиопоток №3 (RUS): DD 2.0, 48 kHz, 192 kbps | авторский одноголосный закадровый (Андрей Дольский)
    Аудиопоток №4 (RUS): DD 5.1, 48 kHz, 640 kbps | авторский одноголосный закадровый (Юрий Живов)
    Аудиопоток №5 (RUS): DD 5.1, 48 kHz, 448 kbps | одноголосный закадровый (Михаил kyberpunk Яроцкий)
    Аудиопоток №6 (ENG): DD 5.1, 48 kHz, 640 kbps
    Аудиопоток №7 (ENG): AAC-LC 2.0, 48 kHz, ~61 kbps | комментарии актеров Энтони Майкла Холла и Джадда Нельсона
    Субтитры №1 (RUS): SRT/UTF8
    Субтитры №2 (RUS): SRT/UTF8 | Uncle KiLler
    Субтитры №3 (ENG): SRT/UTF8 | SDH
    Субтитры №4 (ENG): SRT/UTF8 | комментарии
    Сэмпл: Яндекс.Диск→, multi-up→

    x264 Log

    Код:
    x264 [info]: frame I:1341  Avg QP:15.31  size:172314
    x264 [info]: frame P:24890 Avg QP:16.68  size: 86567
    x264 [info]: frame B:113253 Avg QP:18.50  size: 44385
    x264 [info]: consecutive B-frames:  1.4%  0.5%  2.3%  5.3% 11.3% 67.4%  8.1%  1.5%  1.3%  1.0%
    encoded 139484 frames, 8.50 fps, 10193.13 kb/s

    MediaInfo

    Код:
    General
    Unique ID                   : 248940801949993535521639872427319978849 (0xBB484125F6A5995787DC5668CFDD6B61)
    Complete name               : The.Breakfast.Club.1985.720p.BDRip.x264.DD.SRT-EbP.mkv
    Format                      : Matroska
    Format version              : Version 4 / Version 2
    File size                   : 8.86 GiB
    Duration                    : 1h 37mn
    Overall bit rate            : 13.1 Mbps
    Movie name                  : The Breakfast Club (1985) 720p BDRip by EbP
    Encoded date                : UTC 2015-04-02 00:16:15
    Writing application         : mkvmerge v7.5.0 ('Glass Culture') 64bit built on Jan  4 2015 16:48:44
    Writing library             : libebml v1.3.1 + libmatroska v1.4.2
    DURATION                    : 01:36:57.632000000
    NUMBER_OF_FRAMES            : 181801
    NUMBER_OF_BYTES             : 465410560
    _STATISTICS_WRITING_APP     : mkvmerge v7.5.0 ('Glass Culture') 64bit built on Jan  4 2015 16:48:44
    _STATISTICS_WRITING_DATE_UT : 2015-04-02 00:16:15
    _STATISTICS_TAGS            : BPS DURATION NUMBER_OF_FRAMES NUMBER_OF_BYTES
    Video
    ID                          : 1
    Format                      : AVC
    Format/Info                 : Advanced Video Codec
    Format profile              : High@L4.1
    Format settings, CABAC      : Yes
    Format settings, ReFrames   : 9 frames
    Codec ID                    : V_MPEG4/ISO/AVC
    Duration                    : 1h 37mn
    Width                       : 1 280 pixels
    Height                      : 692 pixels
    Display aspect ratio        : 1.85:1
    Frame rate mode             : Constant
    Frame rate                  : 23.976 fps
    Color space                 : YUV
    Chroma subsampling          : 4:2:0
    Bit depth                   : 8 bits
    Scan type                   : Progressive
    Title                       : 1280x692, 23.976 fps, x264 ~10203 kbps
    Writing library             : x264 core 146 r2538 121396c
    Encoding settings           : cabac=1 / ref=9 / deblock=1:-3:-3 / analyse=0x3:0x133 / me=umh / subme=10 / psy=1 / psy_rd=1.05:0.00 / mixed_ref=1 / me_range=16 / chroma_me=1 / trellis=2 / 8x8dct=1 / cqm=0 / deadzone=21,11 / fast_pskip=0 / chroma_qp_offset=-2 / threads=12 / lookahead_threads=2 / sliced_threads=0 / nr=0 / decimate=0 / interlaced=0 / bluray_compat=0 / constrained_intra=0 / bframes=9 / b_pyramid=2 / b_adapt=2 / b_bias=0 / direct=3 / weightb=1 / open_gop=0 / weightp=2 / keyint=250 / keyint_min=23 / scenecut=40 / intra_refresh=0 / rc=crf / mbtree=0 / crf=16.5 / qcomp=0.60 / qpmin=0 / qpmax=69 / qpstep=4 / ip_ratio=1.40 / pb_ratio=1.30 / aq=3:0.70
    Language                    : English
    Default                     : Yes
    Forced                      : No
    DURATION                    : 01:36:57.645000000
    NUMBER_OF_FRAMES            : 139484
    NUMBER_OF_BYTES             : 7412504527
    _STATISTICS_WRITING_APP     : mkvmerge v7.5.0 ('Glass Culture') 64bit built on Jan  4 2015 16:48:44
    _STATISTICS_WRITING_DATE_UT : 2015-04-02 00:16:15
    _STATISTICS_TAGS            : BPS DURATION NUMBER_OF_FRAMES NUMBER_OF_BYTES
    Audio #1
    ID                          : 2
    Format                      : AC-3
    Format/Info                 : Audio Coding 3
    Mode extension              : CM (complete main)
    Format settings, Endianness : Big
    Codec ID                    : A_AC3
    Duration                    : 1h 37mn
    Bit rate mode               : Constant
    Bit rate                    : 448 Kbps
    Channel(s)                  : 6 channels
    Channel positions           : Front: L C R, Side: L R, LFE
    Sampling rate               : 48.0 KHz
    Bit depth                   : 16 bits
    Compression mode            : Lossy
    Stream size                 : 311 MiB (3%)
    Title                       : RUS MVO R5 DD 5.1, 48 kHz, 448 kbps
    Language                    : Russian
    Default                     : Yes
    Forced                      : No
    Audio #2
    ID                          : 3
    Format                      : AC-3
    Format/Info                 : Audio Coding 3
    Mode extension              : CM (complete main)
    Format settings, Endianness : Big
    Codec ID                    : A_AC3
    Duration                    : 1h 37mn
    Bit rate mode               : Constant
    Bit rate                    : 448 Kbps
    Channel(s)                  : 6 channels
    Channel positions           : Front: L C R, Side: L R, LFE
    Sampling rate               : 48.0 KHz
    Bit depth                   : 16 bits
    Compression mode            : Lossy
    Stream size                 : 311 MiB (3%)
    Title                       : RUS MVO СТС DD 5.1, 48 kHz, 448 kbps
    Language                    : Russian
    Default                     : No
    Forced                      : No
    Audio #3
    ID                          : 4
    Format                      : AC-3
    Format/Info                 : Audio Coding 3
    Mode extension              : CM (complete main)
    Format settings, Endianness : Big
    Codec ID                    : A_AC3
    Duration                    : 1h 37mn
    Bit rate mode               : Constant
    Bit rate                    : 192 Kbps
    Channel(s)                  : 2 channels
    Channel positions           : Front: L R
    Sampling rate               : 48.0 KHz
    Bit depth                   : 16 bits
    Compression mode            : Lossy
    Stream size                 : 133 MiB (1%)
    Title                       : RUS AVO А.Дольский DD 2.0, 48 kHz, 192 kbps
    Language                    : Russian
    Default                     : No
    Forced                      : No
    Audio #4
    ID                          : 5
    Format                      : AC-3
    Format/Info                 : Audio Coding 3
    Mode extension              : CM (complete main)
    Format settings, Endianness : Big
    Codec ID                    : A_AC3
    Duration                    : 1h 37mn
    Bit rate mode               : Constant
    Bit rate                    : 640 Kbps
    Channel(s)                  : 6 channels
    Channel positions           : Front: L C R, Side: L R, LFE
    Sampling rate               : 48.0 KHz
    Bit depth                   : 16 bits
    Compression mode            : Lossy
    Stream size                 : 444 MiB (5%)
    Title                       : RUS AVO Ю.Живов DD 5.1, 48 kHz, 640 kbps
    Language                    : Russian
    Default                     : No
    Forced                      : No
    Audio #5
    ID                          : 6
    Format                      : AC-3
    Format/Info                 : Audio Coding 3
    Mode extension              : CM (complete main)
    Format settings, Endianness : Big
    Codec ID                    : A_AC3
    Duration                    : 1h 37mn
    Bit rate mode               : Constant
    Bit rate                    : 448 Kbps
    Channel(s)                  : 6 channels
    Channel positions           : Front: L C R, Side: L R, LFE
    Sampling rate               : 48.0 KHz
    Bit depth                   : 16 bits
    Compression mode            : Lossy
    Stream size                 : 311 MiB (3%)
    Title                       : RUS VO М.Яроцкий DD 5.1, 48 kHz, 448 kbps
    Language                    : Russian
    Default                     : No
    Forced                      : No
    Audio #6
    ID                          : 7
    Format                      : AC-3
    Format/Info                 : Audio Coding 3
    Mode extension              : CM (complete main)
    Format settings, Endianness : Big
    Codec ID                    : A_AC3
    Duration                    : 1h 37mn
    Bit rate mode               : Constant
    Bit rate                    : 640 Kbps
    Channel(s)                  : 6 channels
    Channel positions           : Front: L C R, Side: L R, LFE
    Sampling rate               : 48.0 KHz
    Bit depth                   : 16 bits
    Compression mode            : Lossy
    Stream size                 : 444 MiB (5%)
    Title                       : ENG DD 5.1, 48 kHz, 640 kbps
    Language                    : English
    Default                     : No
    Forced                      : No
    Audio #7
    ID                          : 8
    Format                      : AAC
    Format/Info                 : Advanced Audio Codec
    Format profile              : LC
    Codec ID                    : A_AAC
    Duration                    : 1h 37mn
    Channel(s)                  : 2 channels
    Channel positions           : Front: L R
    Sampling rate               : 48.0 KHz
    Compression mode            : Lossy
    Delay relative to video     : 9ms
    Title                       : ENG Commentary AAC-LC 2.0, 48 kHz, ~61 kbps
    Language                    : English
    Default                     : No
    Forced                      : No
    Text #1
    ID                          : 9
    Format                      : UTF-8
    Codec ID                    : S_TEXT/UTF8
    Codec ID/Info               : UTF-8 Plain Text
    Title                       : RUS SRT
    Language                    : Russian
    Default                     : No
    Forced                      : No
    Text #2
    ID                          : 10
    Format                      : UTF-8
    Codec ID                    : S_TEXT/UTF8
    Codec ID/Info               : UTF-8 Plain Text
    Title                       : RUS Uncle KiLler SRT
    Language                    : Russian
    Default                     : No
    Forced                      : No
    Text #3
    ID                          : 11
    Format                      : UTF-8
    Codec ID                    : S_TEXT/UTF8
    Codec ID/Info               : UTF-8 Plain Text
    Title                       : ENG SDH SRT
    Language                    : English
    Default                     : No
    Forced                      : No
    Text #4
    ID                          : 12
    Format                      : UTF-8
    Codec ID                    : S_TEXT/UTF8
    Codec ID/Info               : UTF-8 Plain Text
    Title                       : ENG Commentary SRT
    Language                    : English
    Default                     : No
    Forced                      : No
    Menu
    00:00:00.000                : en:1. Main Titles
    00:02:02.581                : en:2. A Saturday in Detention
    00:05:48.849                : en:3. Who Do You Think You Are?
    00:15:26.300                : en:4. Monkey Business
    00:21:06.515                : en:5. Passing the Time
    00:22:57.793                : en:6. Parents
    00:30:15.814                : en:7. The Custodial Artist
    00:31:39.439                : en:8. Personal Business
    00:37:04.931                : en:9. Lunchtime
    00:43:20.306                : en:10. Being Bad Feels Pretty Good
    00:50:00.456                : en:11. A Man of Respect
    00:51:45.144                : en:12. A Ruckus
    00:55:39.795                : en:13. Blazing Up
    00:58:01.603                : en:14. Highly Sensitive Areas
    01:06:34.532                : en:15. Group Therapy
    01:26:12.918                : en:16. We Are Not Alone
    01:32:12.235                : en:17. Sincerely Yours, The Breakfast Club
    01:34:50.018                : en:18. End Titles

    Скриншоты


    Source vs. EbP



  • _________________
    Показать сообщения:    

    Текущее время: Сегодня 11:19

    Часовой пояс: GMT



    Вы не можете начинать темы
    Вы не можете отвечать на сообщения
    Вы не можете редактировать свои сообщения
    Вы не можете удалять свои сообщения
    Вы не можете голосовать в опросах
    Вы не можете прикреплять файлы к сообщениям
    Вы не можете скачивать файлы
    Наши партнеры: интернет магазин Ивановского трикотажа textilla.ru