Ивановский Торрент трекер
Яндекс.Погода
 

[Цитировать]
HUNTER

Клуб Винкс. Судьба Блум / Winx Club: The Fate of Bloom
Год выпуска: 2011
Страна: Италия
Жанр: мультфильм, семейный
Продолжительность: 00:46:00
Перевод: Профессиональный (дублированный), объединение «Русский дубляж» в 2011г.
Русские субтитры: телетекст
Режиссёр: Иджинио Страффи / Iginio Straffi
Описание: Когда-то Блум была самой обычной девочкой, такой же, как и миллионы других…
Но в один прекрасный день с ней произошло самое настоящее чудо: сумев случайно спасти жизнь фее, Блум осознала, что сама обладает магическими способностями. После этого она отправилась в школу под названием Алфея — специальное учебное заведение для фей. Там Блум нашла верных друзей и встретила первых врагов, ей пришлось столкнуться с радостями и трудностями, испытать множество счастливых моментов, проверить себя на прочность и закалить характер.
Релиз группы:
Трансляция спутникового канала:

Семпл: https://yadi.sk/i/vMzLoBbFpyXgA
Качество видео: DVB
Формат видео: MPEG-TS
Видео: MPEG4 Video (H264), 720x576@785x576 (4:3), анаморф, 25 fps, 2700 kbps
Аудио: MPEG Audio, 2 сh, 48 kHz, 192 kbps

MediaInfo

General
ID : 1 (0x1)
Complete name : G:\Клуб Винкс. Судьба Блум. (2011)_DVB by SLuMeP.ts
Format : MPEG-TS
File size : 994 MiB
Duration : 46mn 0s
Overall bit rate mode : Variable
Overall bit rate : 3 019 Kbps
Video
ID : 1081 (0x439)
Menu ID : 1080 (0x438)
Format : AVC
Format/Info : Advanced Video Codec
Format profile : Main@L3
Format settings, CABAC : Yes
Format settings, ReFrames : 4 frames
Codec ID : 27
Duration : 46mn 0s
Bit rate : 2 676 Kbps
Width : 720 pixels
Height : 576 pixels
Display aspect ratio : 4:3
Frame rate : 25.000 fps
Standard : Component
Color space : YUV
Chroma subsampling : 4:2:0
Bit depth : 8 bits
Scan type : Interlaced
Scan type, store method : Separated fields
Scan order : Top Field First
Bits/(Pixel*Frame) : 0.258
Stream size : 881 MiB (89%)
Color range : Limited
Color primaries : BT.601 PAL
Transfer characteristics : BT.470 System B, BT.470 System G
Matrix coefficients : BT.601
Audio
ID : 1082 (0x43A)
Menu ID : 1080 (0x438)
Format : MPEG Audio
Format version : Version 1
Format profile : Layer 2
Codec ID : 3
Duration : 46mn 0s
Bit rate mode : Constant
Bit rate : 192 Kbps
Channel(s) : 2 channels
Sampling rate : 48.0 KHz
Compression mode : Lossy
Delay relative to video : -120ms
Stream size : 63.2 MiB (6%)
Language : Russian
Text
ID : 1083 (0x43B)-100
Menu ID : 1080 (0x438)
Format : Teletext
Language : Russian

Скриншоты


Показать сообщения:    

Текущее время: 24-Сен 18:36

Часовой пояс: UTC - 1


Вы не можете начинать темы
Вы не можете отвечать на сообщения
Вы не можете редактировать свои сообщения
Вы не можете удалять свои сообщения
Вы не можете голосовать в опросах
Вы не можете прикреплять файлы к сообщениям
Вы не можете скачивать файлы

!ВНИМАНИЕ!
Сайт не предоставляет электронные версии произведений, а занимается лишь коллекционированием и каталогизацией ссылок, присылаемых и публикуемых на форуме нашими читателями. Если вы являетесь правообладателем какого-либо представленного материала и не желаете, чтобы ссылка на него находилась в нашем каталоге, свяжитесь с нами, и мы незамедлительно удалим ее. Файлы для обмена на трекере предоставлены пользователями сайта, и администрация не несет ответственности за их содержание. Просьба не заливать файлы, защищенные авторскими правами, а также файлы нелегального содержания!