Важное объявление!
У Нас Все раздачи мультитрекерные, при нуле пиров в релизах, можете смело вставать на закачку!
 
Автор Сообщение

HUNTER

Стаж:
4 года 10 месяцев
Сообщений:
65511

Репутация: 101

[+] [-]
Вне форума [Профиль] [ЛС]

Клубничное лето / Strawberry Summer
Страна: США
Жанр: драма
Год выпуска: 2012
Продолжительность: 01:22:37
Перевод: Профессиональный (двухголосый закадровый)
Cубтитры: нет
Режиссер: Кевин Коннор / Kevin Connor
В ролях: Джули Монд, Тревор Донован, Шелли Лонг, Синди Уильямс, Дагни Керр, Меган Фэй, Жилон Гай, Бекки О’Донахью, Бэрри Ван Дайк, Мишель ДеФрайтс
Описание:
Весь мир учительницы музыки Бет Лэндон переворачивается, когда она приглашает известного музыканта Джейсона Кита выступить на "Клубничном фестивале" в её городке.

Кинопоиск: http://www.kinopoisk.ru/film/687236/
Сэмпл: http://rusfolder.com/42219215
Тип релиза: HDTV 1080i
Контейнер: TS
Видео: AVC/H.264, PAL, 1920х1080 (16:9), 25 fps, 8603 Kbps
Аудио: русский, MP-2, 48000 Hz, 192 Кбит/сек, 2 ch

MediaInfo

Общее
Идентификатор : 1 (0x1)
Полное имя : D:\Клубничное лето.ts
Формат : MPEG-TS
Размер файла : 5,34 Гбайт
Продолжительность : 1 ч. 22 м.
Режим общего битрейта : Переменный
Общий поток : 9254 Кбит/сек
Максимальный общий битрейт : 35,5 Мбит/сек
Видео
Идентификатор : 4113 (0x1011)
Идентификатор меню : 1 (0x1)
Формат : AVC
Формат/Информация : Advanced Video Codec
Профиль формата : Main@L4.0
Параметр CABAC формата : Да
Параметр ReFrames формата : 3 кадра
Идентификатор кодека : 27
Продолжительность : 1 ч. 22 м.
Вид битрейта : Переменный
Битрейт : 8603 Кбит/сек
Максимальный битрейт : 40,0 Мбит/сек
Ширина : 1920 пикселей
Высота : 1080 пикселей
Соотношение сторон : 16:9
Частота кадров : 25,000 кадров/сек
Стандарт вещания : Component
Цветовое пространство : YUV
Субдискретизация насыщенности : 4:2:0
Битовая глубина : 8 бит
Тип развёртки : Чересстрочная
Порядок развёртки : Верхнее поле первое
Бит/(Пиксели*Кадры) : 0.166
Размер потока : 4,96 Гбайт (93%)
Основные цвета : BT.709
Характеристики трансфера : BT.709
Коэффициенты матрицы : BT.709
Аудио
Идентификатор : 4352 (0x1100)
Идентификатор меню : 1 (0x1)
Формат : MPEG Audio
Версия формата : Version 1
Профиль формата : Layer 2
Идентификатор кодека : 4
Продолжительность : 1 ч. 22 м.
Вид битрейта : Постоянный
Битрейт : 192 Кбит/сек
Каналы : 2 канала
Частота : 48,0 КГц
Метод сжатия : С потерями
Размер потока : 113 Мбайт (2%)
Язык : Russian

Скриншот c названием фильма

Скриншоты


_________________
Показать сообщения:    

Текущее время: Сегодня 12:08

Часовой пояс: GMT



Вы не можете начинать темы
Вы не можете отвечать на сообщения
Вы не можете редактировать свои сообщения
Вы не можете удалять свои сообщения
Вы не можете голосовать в опросах
Вы не можете прикреплять файлы к сообщениям
Вы не можете скачивать файлы