Важное объявление!
У Нас Все раздачи мультитрекерные, при нуле пиров в релизах, можете смело вставать на закачку!
 
Автор Сообщение

HUNTER

Стаж:
4 года 10 месяцев
Сообщений:
65557

Репутация: 101

[+] [-]
Вне форума [Профиль] [ЛС]

-
Год выпуска: 2014
Страна: Япония
Жанр: фэнтези
Продолжительность: ТВ-сериал, 13 эп. по 24 мин.
Выпуск: c 04.04.2014 по 27.06.2014-Перевод:

  • русские субтитры от Jenia aka Zub-Режиссер: Такэути Хироси
    Студия: Gonzo Digimation-Описание:
    Когда-то в этом мире распахнулись Темные Врата, откуда хлынули орды демонов. Небеса не остались в стороне, демонов победили, а Врата были запечатаны четырьмя Великими Мастерами. Столетия спустя отступница Цинь Валайлу подняла мятеж, чтобы сокрушить печати, но была уничтожена объединенной мощью Мастеров. Шли века, рождались и уходили народы, память о древних битвах изгладилась, и Посланница Хаоса явилась вновь. На этот раз Валайлу учла уроки прошлого, решив для начала захватить власть в агрессивной Паламской империи, искусно стравливая своих врагов между собой и уничтожая их поодиночке. Именно так Цинь убила главу Клана Мечей, обвинив во всем его лучшую ученицу Аньжусян.
    Видя явное неравенство сил, Аньжусян бежала в пограничные земли, которыми правят местные вожди вместе с наемниками и бандитами. Вскоре девушка поняла, что скрыться ей не удастся, ибо паламцы принялись за поиски всерьез, а сумма награды за ее голову развяжет любые языки. Беглянке стало ясно: чтобы выжить и отомстить, надо искать надежных союзников. На землях пограничья хватает лихих людей, отважных рыцарей и простых воинов – к кому обратиться, кто поможет и не предаст? Аньжусян еще не знает, что на извилистых дорожках судьбы ее ждет встреча с тремя выдающимися женщинами. А ведь одна женщина – еще ничего, две женщины – майдан, а три – уже армия! Теперь Тьма точно не пройдет!
    © Hollow, World Art
    Аниме снято по корейской онлайн-РПГ. Персонажи игры и аниме принадлежат к четырем расам, названным в честь китайских «Четырех благородных животных».-Информационные ссылки: AniDB || World Art || MAL-Качество: BDRip
    Энкод: Winter - RG Pantheon
    Тип видео: без хардсаба, без линковки
    Формат: mkv
    Видео: x264 (Hi10p), 1280x720, ~3800 Kbps, 23.976 fps
    Аудио JAP: Vorbis, 48000Hz, ~256 Kbps, 2ch
    Аудио RUS 1: AC3, 48000Hz, ~192 Kbps, 2ch (внешними файлами)-

    Список озвучек в раздаче
  • одноголосая (муж.) от Cuba77 (AniDub)
    Список эпизодов
    01. Road
    02. Desire
    СкриншотыОтличия от других раздачПодробные тех. данные
    Общее
    Уникальный идентификатор : 192962704585880786795695150536904866763 (0x912B43DD0425CAA892E7BCF4E46EFBCB)
    Полное имя : Z:\Anime\720p\Blade & Soul [BD] [720p]\[Winter] Blade & Soul 01 [BDrip 1280x720 x264 Vorbis].mkv
    Формат : Matroska
    Версия формата : Version 2
    Размер файла : 736 Мбайт
    Продолжительность : 24 м.
    Режим общего битрейта : Переменный
    Общий поток : 4182 Кбит/сек
    Дата кодирования : UTC 2014-07-02 08:43:03
    Программа кодирования : mkvmerge v2.9.8 ('C'est le bon') built on Aug 13 2009 12:49:06
    Библиотека кодирования : libebml v0.7.7 + libmatroska v0.8.1
    Видео
    Идентификатор : 1
    Формат : AVC
    Формат/Информация : Advanced Video Codec
    Профиль формата : High 10@L4.1
    Параметр CABAC формата : Да
    Параметр ReFrames формата : 9 кадров
    Идентификатор кодека : V_MPEG4/ISO/AVC
    Продолжительность : 24 м.
    Битрейт : 3842 Кбит/сек
    Ширина : 1280 пикселей
    Высота : 720 пикселей
    Соотношение сторон : 16:9
    Режим частоты кадров : Постоянный
    Частота кадров : 23,976 кадра/сек
    Цветовое пространство : YUV
    Субдискретизация насыщенности : 4:2:0
    Битовая глубина : 10 бит
    Тип развёртки : Прогрессивная
    Бит/(Пиксели*Кадры) : 0.174
    Размер потока : 677 Мбайт (92%)
    Библиотека кодирования : x264 core 132 r2309 3b1f1f7
    Настройки программы : cabac=1 / ref=9 / deblock=1:-2:-2 / analyse=0x3:0x133 / me=umh / subme=9 / psy=1 / psy_rd=0.90:0.00 / mixed_ref=1 / me_range=24 / chroma_me=1 / trellis=2 / 8x8dct=1 / cqm=0 / deadzone=21,11 / fast_pskip=1 / chroma_qp_offset=-2 / threads=12 / lookahead_threads=2 / sliced_threads=0 / nr=0 / decimate=0 / interlaced=0 / bluray_compat=0 / constrained_intra=0 / bframes=8 / b_pyramid=2 / b_adapt=2 / b_bias=0 / direct=1 / weightb=1 / open_gop=0 / weightp=2 / keyint=250 / keyint_min=23 / scenecut=40 / intra_refresh=0 / rc=crf / mbtree=0 / crf=15.6 / qcomp=0.70 / qpmin=9 / qpmax=40 / qpstep=4 / ip_ratio=1.40 / pb_ratio=1.30 / aq=1:0.90 / zones=2917,5040,b=1.2
    Default : Нет
    Forced : Нет
    Аудио
    Идентификатор : 2
    Формат : Vorbis
    Параметр Floor формата : 1
    Идентификатор кодека : A_VORBIS
    Продолжительность : 24 м.
    Вид битрейта : Переменный
    Битрейт : 256 Кбит/сек
    Каналы : 2 канала
    Частота : 48,0 КГц
    Метод сжатия : С потерями
    Размер потока : 45,1 Мбайт (6%)
    Библиотека кодирования : libVorbis (Schaufenugget) (20101101 (Schaufenugget))
    Язык : Japanese
    Default : Да
    Forced : Нет
    - -Информация о релизе
  • Выбор видео, перевода, озвучки, а также типа сборки материала осуществляется релизером и не подлежит обсуждению. Если вы считаете, что раздаваемый материал противоречит правилам раздела "Аниме" rutracker.org, сообщите об этом одному из модераторов раздела.
  • В случае появления нового материала или же лучшего по качеству материала релизер оставляет за собой право обновить раздачу. В этом случае вам необходимо ознакомиться с изменениями (добавлениями) и перекачать торрент.
  • Данный релиз предназначен для просмотра на ПК. Воспроизведение на иных проигрывателях не гарантируется. Для просмотра рекомендуется Media Player Classic с установленным пакетом кодеков K-Lite.
  • Данный релиз содержит 10-битное видео (Hi10p). Для корректного воспроизведения обязательно используйте кодеки, поддерживающие 10-битное видео.
    Обсудить частные случаи проблем с воспроизведением и получить дополнительную информацию можно здесь.

  • Данный релиз предназначен для просмотра с внешними субтитрами и внешними звуковыми дорожками.
  • Для просмотра с внешней звуковой дорожкой нужно:
    перекинуть файлы .mka из папки "RUS Sound [<автор(ы) озвучки>]" в одну папку с видео и переключить звуковую дорожку в плеере при просмотре. Как это сделать в разных плеерах подробно описано здесь.

  • Для просмотра с субтитрами нужно:
    перекинуть файлы .ass из папки "RUS Subtitles [<автор(ы) перевода>]" в одну папку с видео - плеер подгрузит их автоматически при открытии видео.

  • Если у вас возникли проблемы с просмотром, не связанные с описанным выше, сообщите о них автору раздачи посредством сообщения в теме или ЛС Aglenn.

  • _________________
    Показать сообщения:    

    Текущее время: Сегодня 02:27

    Часовой пояс: GMT



    Вы не можете начинать темы
    Вы не можете отвечать на сообщения
    Вы не можете редактировать свои сообщения
    Вы не можете удалять свои сообщения
    Вы не можете голосовать в опросах
    Вы не можете прикреплять файлы к сообщениям
    Вы не можете скачивать файлы