Ивановский Торрент трекер
Яндекс.Погода
 

[Цитировать]
HUNTER

Кисмет / Kismet- Год выпуска: 1955
Страна: США
Жанр: мюзикл, приключения
Продолжительность: 01:53:05
Перевод: Одноголосый закадровый – ruslame
Оригинальная аудиодорожка: Английская
Cубтитры: Русские (Рут Глушкина), английские (полные, для слабослышащих)-Режиссер: Винсент Миннелли / Vincente Minnelli
В ролях: Говард Кил, Энн Блайт, Долорес Грэй, Вик Дэймон, Монти Уолли, Себастьян Кабот, Джэй С. Флиппен, Майк Мазурки, Джек Илэм, Тед де Корсиа, Рейко Сато, Патриция Данн, Вонси Лу, Джули Робинсон, Росс Багдасарян, Дэвид Бонд, Берни Хэмилтон, Джордж Кеймас, Этан Лайдлоу, Норман Левитт, Леонард Мади, Дон Орландо, Аарон Спеллинг, Чарльз Вагенхейм, Мел Веллес-Описание:
Рассказ о поэте, который за один день из нищего превращается в богача. В его дочь влюбляется молодой калиф, а жена деспотичного визиря неожиданно влюбляется в поэта.-За дорожку спасибо olegsa и rjhlb777, за субтитры спасибо rutigl@FenixClub.
| IMDb | Сэмпл-Качество: BDRip 720p (CRiSC)
Контейнер: MKV
Видео: x264, 1280x500 (2.56:1), 23.976 fps, 9000 kbps
Аудио 1: Русский AC3 5.1, 48 kHz, 448 kbps
Аудио 2: Английский AC3 5.1, 48 kHz, 640 kbps

Скриншоты

SOURCE - ENCODE


MI

nfo
RELEASE:
RELEASE.NAME....: Kismet.1955.720p.BluRay.DD5.1.x264-CRiSC.mkv
IMDb............: http://www.imdb.com/title/tt0048260/
RUNTiME.........: 01:53:05
SiZE............: 7.62 GB
ViDEO.CODEC.....: x264
FRAMERATE.......: 23.976
BiTRATE.........: 9000 kbps
RESOLUTiON......: 1280x500
AUDiO...........: English AC3 5.1 @ 640 kbps (Dolby Encoder)
CHAPTERS........: Yes
SUBTiTLES.......: English .sup
ENCODER.........: Kuningas
RELEASE.DATE....: 06.10.2014
SOURCE..........: Blu-ray
General
Unique ID : 236763927370759684422741205547716072020 (0xB21F12E11C2D8D08A2782CB4EA825254)
Complete name : Kismet.1955.720p.BluRay.DD5.1.x264-CRiSC.mkv
Format : Matroska
Format version : Version 2
File size : 7.97 GiB
Duration : 1h 53mn
Overall bit rate : 10.1 Mbps
Movie name : Kismet / Кисмет (1955) – RuTracker
Encoded date : UTC 2015-05-07 20:37:19
Writing application : mkvmerge v7.5.0 ('Glass Culture') 64bit built on Jan 4 2015 16:48:44
Writing library : libebml v1.3.1 + libmatroska v1.4.2
Attachements : cover.jpg
Video
ID : 1
Format : AVC
Format/Info : Advanced Video Codec
Format profile : High@L4.1
Format settings, CABAC : Yes
Format settings, ReFrames : 12 frames
Codec ID : V_MPEG4/ISO/AVC
Duration : 1h 53mn
Bit rate : 9 000 Kbps
Width : 1 280 pixels
Height : 500 pixels
Display aspect ratio : 2.560
Frame rate mode : Constant
Frame rate : 23.976 fps
Color space : YUV
Chroma subsampling : 4:2:0
Bit depth : 8 bits
Scan type : Progressive
Bits/(Pixel*Frame) : 0.587
Stream size : 6.95 GiB (87%)
Title : Kismet.1955.720p.BluRay.DD5.1.x264-CRiSC
Writing library : x264 core 142 r2479kMod dd79a61
Encoding settings : cabac=1 / ref=12 / deblock=1:-3:-3 / analyse=0x3:0x133 / me=umh / subme=11 / psy=1 / fade_compensate=0.00 / psy_rd=1.20:0.00 / mixed_ref=1 / me_range=64 / chroma_me=1 / trellis=2 / 8x8dct=1 / cqm=0 / deadzone=21,11 / fast_pskip=0 / chroma_qp_offset=-2 / threads=12 / lookahead_threads=1 / sliced_threads=0 / nr=0 / decimate=0 / interlaced=0 / bluray_compat=0 / constrained_intra=0 / fgo=0 / bframes=6 / b_pyramid=2 / b_adapt=2 / b_bias=0 / direct=3 / weightb=1 / open_gop=0 / weightp=2 / keyint=250 / keyint_min=23 / scenecut=40 / intra_refresh=0 / rc_lookahead=40 / rc=2pass / mbtree=0 / bitrate=9000 / ratetol=1.0 / qcomp=0.75 / qpmin=0 / qpmax=69 / qpstep=4 / cplxblur=20.0 / qblur=0.5 / vbv_maxrate=50000 / vbv_bufsize=62500 / nal_hrd=none / filler=0 / ip_ratio=1.30 / pb_ratio=1.20 / aq=3:0.60
Language : English
Default : Yes
Forced : No
Color primaries : BT.709
Transfer characteristics : BT.709
Matrix coefficients : BT.709
Color range : Limited
Audio #1
ID : 2
Format : AC-3
Format/Info : Audio Coding 3
Mode extension : CM (complete main)
Format settings, Endianness : Big
Codec ID : A_AC3
Duration : 1h 53mn
Bit rate mode : Constant
Bit rate : 448 Kbps
Channel(s) : 6 channels
Channel positions : Front: L C R, Side: L R, LFE
Sampling rate : 48.0 KHz
Bit depth : 16 bits
Compression mode : Lossy
Stream size : 362 MiB (4%)
Title : VO – ruslame
Language : Russian
Default : Yes
Forced : No
Audio #2
ID : 3
Format : AC-3
Format/Info : Audio Coding 3
Mode extension : CM (complete main)
Format settings, Endianness : Big
Codec ID : A_AC3
Duration : 1h 53mn
Bit rate mode : Constant
Bit rate : 640 Kbps
Channel(s) : 6 channels
Channel positions : Front: L C R, Side: L R, LFE
Sampling rate : 48.0 KHz
Bit depth : 16 bits
Compression mode : Lossy
Stream size : 518 MiB (6%)
Title : Original
Language : English
Default : No
Forced : No
Text #1
ID : 4
Format : UTF-8
Codec ID : S_TEXT/UTF8
Codec ID/Info : UTF-8 Plain Text
Title : rutigl (Рут Глушкина)
Language : Russian
Default : No
Forced : No
Text #2
ID : 5
Format : UTF-8
Codec ID : S_TEXT/UTF8
Codec ID/Info : UTF-8 Plain Text
Language : English
Default : No
Forced : No
Text #3
ID : 6
Format : UTF-8
Codec ID : S_TEXT/UTF8
Codec ID/Info : UTF-8 Plain Text
Title : SDH
Language : English
Default : No
Forced : No
Menu
00:00:00.000 : en:00:00:00.000
00:01:40.100 : en:00:01:40.100
00:07:58.478 : en:00:07:58.478
00:10:46.646 : en:00:10:46.646
00:14:44.884 : en:00:14:44.884
00:15:50.950 : en:00:15:50.950
00:20:26.225 : en:00:20:26.225
00:23:32.411 : en:00:23:32.411
00:25:59.558 : en:00:25:59.558
00:29:09.748 : en:00:29:09.748
00:31:18.877 : en:00:31:18.877
00:35:49.147 : en:00:35:49.147
00:40:25.423 : en:00:40:25.423
00:45:40.738 : en:00:45:40.738
00:49:00.938 : en:00:49:00.938
00:53:09.186 : en:00:53:09.186
00:57:18.435 : en:00:57:18.435
01:01:33.690 : en:01:01:33.690
01:04:50.887 : en:01:04:50.887
01:07:20.036 : en:01:07:20.036
01:10:34.230 : en:01:10:34.230
01:13:13.389 : en:01:13:13.389
01:16:15.571 : en:01:16:15.571
01:19:02.738 : en:01:19:02.738
01:22:55.971 : en:01:22:55.971
01:25:44.139 : en:01:25:44.139
01:31:04.459 : en:01:31:04.459
01:34:15.650 : en:01:34:15.650
01:39:18.953 : en:01:39:18.953
01:41:12.066 : en:01:41:12.066
01:43:31.205 : en:01:43:31.205
01:45:31.325 : en:01:45:31.325
01:49:00.534 : en:01:49:00.534
01:51:04.283 : en:01:51:04.283
Показать сообщения:    

Текущее время: 19-Окт 17:23

Часовой пояс: UTC - 1


Вы не можете начинать темы
Вы не можете отвечать на сообщения
Вы не можете редактировать свои сообщения
Вы не можете удалять свои сообщения
Вы не можете голосовать в опросах
Вы не можете прикреплять файлы к сообщениям
Вы не можете скачивать файлы

!ВНИМАНИЕ!
Сайт не предоставляет электронные версии произведений, а занимается лишь коллекционированием и каталогизацией ссылок, присылаемых и публикуемых на форуме нашими читателями. Если вы являетесь правообладателем какого-либо представленного материала и не желаете, чтобы ссылка на него находилась в нашем каталоге, свяжитесь с нами, и мы незамедлительно удалим ее. Файлы для обмена на трекере предоставлены пользователями сайта, и администрация не несет ответственности за их содержание. Просьба не заливать файлы, защищенные авторскими правами, а также файлы нелегального содержания!