Кирику и мужчины и женщины / Kirikou et les hommes et les femmes (Мишель Осело / Michel Ocelot) [2012, Франция, анимация, детский, семейный, HDRip] Original (FRE) + Sub Rus (Lisok) :: Ивановский Торрент трекер
Важное объявление!
У Нас Все раздачи мультитрекерные, при нуле пиров в релизах, можете смело вставать на закачку!
Статистика раздачи
Размер:     |    Зарегистрирован:     |    Скачан:     |   
Нет
 
     
 
 
Автор Сообщение

HUNTER

Стаж:
4 года 11 месяцев
Сообщений:
66090

Репутация: 101

[+] [-]
Вне форума [Профиль] [ЛС]

~ Кирику и мужчины и женщины / Kirikou et les hommes et les femmes ~-
Страна: Франция
Жанр:анимация, детский, семейный
Продолжительность: 01:28:47
Год выпуска: 2012
Перевод: : субтитры
Оригинальная аудиодорожка: французский
Субтитры: русские (Lisok (Lisochek)--Режиссёр: Мишель Осело / Michel Ocelot--В ролях: Romann Berrux, Awa Sene Sarr-Описание: Продолжение историй о различных подвигах маленького сенегальского мальчика. На этот раз крошечному герою предстоит использовать всю свою храбрость и смекалку в борьбе со злой колдуньей и спасти свое селение от угрожающей опасности. В мультфильме будет показано пять связанных между собой историй о Кирику. Все они рассказаны дедушкой юноши, который видит в своем внуке изобретательного, отзывчивого, храброго и успешного мальчишку, который всегда стремится к победе над злом. (Кинопоиск) --Доп. информация:
СЭМПЛ http://multi-up.com/1084035-
(Lisok (Lisochek) -
за титры и перевод
-
-
-Качество: HDRip
Формат: AVI
Видео: XviD, 720 x 400, 16:9, 23.976 fps, 1 958 Kbps
Аудио: AC-3, 48.0 KHz, 2 channels, 192 Kbps | original FRE-

MediaInfo

General
Complete name : Kirikou et Les Hommes et Les Femmes 2012.avi
Format : AVI
Format/Info : Audio Video Interleave
File size : 1.34 GiB
Duration : 1h 28mn
Overall bit rate : 2 160 Kbps
Writing application : VirtualDubMod 1.5.10.3 | www.virtualdub-fr.org || (build 2550/release)
Writing library : VirtualDubMod build 2550/release
Video #0
ID : 0
Format : MPEG-4 Visual
Format profile : Advanced Simple@L5
Format settings, BVOP : 2
Format settings, QPel : No
Format settings, GMC : No warppoints
Format settings, Matrix : Custom
Codec ID : XVID
Codec ID/Hint : XviD
Duration : 1h 28mn
Bit rate : 1 958 Kbps
Width : 720 pixels
Height : 400 pixels
Display aspect ratio : 16:9
Frame rate : 23.976 fps
Color space : YUV
Chroma subsampling : 4:2:0
Bit depth : 8 bits
Scan type : Progressive
Compression mode : Lossy
Bits/(Pixel*Frame) : 0.284
Stream size : 1.21 GiB (91%)
Writing library : XviD 64
Audio #1
ID : 1
Format : AC-3
Format/Info : Audio Coding 3
Mode extension : CM (complete main)
Codec ID : 2000
Duration : 1h 28mn
Bit rate mode : Constant
Bit rate : 192 Kbps
Channel(s) : 2 channels
Channel positions : Front: L R
Sampling rate : 48.0 KHz
Bit depth : 16 bits
Compression mode : Lossy
Stream size : 122 MiB (9%)
Alignment : Split accross interleaves
Interleave, duration : 42 ms (1.00 video frame)
Interleave, preload duration : 500 ms

Скриншоты


covers


фрагмент субтитров

15
00:01:17,650 --> 00:01:20,710
Я вспоминаю соседку,
которую звали
16
00:01:20,820 --> 00:01:22,470
Крупная женщина.
17
00:01:22,600 --> 00:01:25,330
Это была
очень властная женщина,
18
00:01:25,330 --> 00:01:27,340
иногда немного грубая,
19
00:01:27,470 --> 00:01:29,880
но не злая.
20
00:01:30,220 --> 00:01:32,740
В те времена её упрекали в том,
21
00:01:32,810 --> 00:01:37,620
что она не подчинилась
колдунье Карабе,
22
00:01:37,860 --> 00:01:40,880
и та её за это наказала.
23
00:01:41,140 --> 00:01:43,710
Неужели это было так плохо -
24
00:01:43,900 --> 00:01:47,400
не подчиниться ужасной колдунье?
25
00:01:47,680 --> 00:01:52,850
Во всяком случае, Крупная женщина
не дала себя в обиду.
26
00:01:53,000 --> 00:01:56,010
Колдунья Караба сожгла
мою хижину.
27
00:01:56,110 --> 00:01:58,710
А мы заново построим её
даже краше, чем раньше!
28
00:01:58,820 --> 00:02:01,220
Стройка почти закончена!
29
00:02:01,250 --> 00:02:03,920
Можно будет укладывать солому.
30
00:02:03,970 --> 00:02:06,910
Идолы! Идолы!
31
00:02:09,740 --> 00:02:13,810
<i>Вы не должны ремонтировать
так сразу эту крышу!</i>
32
00:02:13,910 --> 00:02:17,190
<i>Женщина ослушалась Карабу!</i>
33
00:02:17,200 --> 00:02:20,160
<i>И её наказание
должно продолжаться!</i>
34
00:02:20,350 --> 00:02:24,310
Но мне нужен дом!
Приближается сезон дождей!
35
00:02:24,420 --> 00:02:25,360
Пожалейте!

_________________
Показать сообщения:    

Текущее время: Сегодня 22:44

Часовой пояс: GMT



Вы не можете начинать темы
Вы не можете отвечать на сообщения
Вы не можете редактировать свои сообщения
Вы не можете удалять свои сообщения
Вы не можете голосовать в опросах
Вы не можете прикреплять файлы к сообщениям
Вы не можете скачивать файлы