Важное объявление!
У Нас Все раздачи мультитрекерные, при нуле пиров в релизах, можете смело вставать на закачку!
 
Автор Сообщение

HUNTER

Стаж:
4 года 9 месяцев
Сообщений:
65057

Репутация: 101

[+] [-]
Вне форума [Профиль] [ЛС]

Ким Пять-с-плюсом: Подумаешь, трагедия / Kim Possible: So the Drama«The adventure of their lives. A movie that changes everything»-
Страна: США
Жанр: мультфильм, фантастика, фэнтези, боевик, комедия, приключения, семейный
Год выпуска: 2005
Продолжительность: 01:05:07
Перевод: Профессиональный (полное дублирование)
Русские субтитры: Нет-Режиссер: Стив Лотер / Steve Loter-Роли озвучивали: Кристи Карлсон Романо (Kim Possible, озвучка), Уилл Фридел (Ron Stoppable, озвучка), Нэнси Картрайт (Rufus, озвучка), Таж Моури (Wade, озвучка), Дидрих Бадер (Lars, озвучка), Рэйвен (Monique, озвучка), Джин Смарт (Dr. Ann Possible, озвучка), Кирстен Стормс (Bonnie Rockwaller, озвучка), Райдер Стронг (Brick Flagg, озвучка), Николь Салливан (Shego, озвучка), Эйприл Уинчелл (Reporter, озвучка), Гэри Коул (Dr. Possible (Dad), озвучка)-Описание: Юная спасительница мира Ким «Пять-с-плюсом» сталкивается с величайшей проблемой своей жизни - с выбором. И на этот раз в любом случае изменится все.-Рейтинг:
-Мировая премьера: 8 апреля 2005-Релиз: -Качество: WEB-DLRip
Формат: AVI
Видео: 720x400 (1.80:1), 25 fps, XviD build 65 ~1459 kbps avg, 0.20 bit/pixel
Аудио: 48 kHz, MPEG Layer 3, 2 ch, ~128.00 kbps avg
Субтитры: Отсутствуют-

MI
General
Complete name : C:\Users\Pc\Desktop\Kim.Possible.So.the.Drama.avi
Format : AVI
Format/Info : Audio Video Interleave
File size : 744 MiB
Duration : 1h 5mn
Overall bit rate : 1 597 Kbps
Writing application : VirtualDubMod 1.5.10.3 | www.virtualdub-fr.org || (build 2550/release)
Writing library : VirtualDubMod build 2550/release
Video
ID : 0
Format : MPEG-4 Visual
Format profile : Advanced Simple@L5
Format settings, BVOP : 2
Format settings, QPel : No
Format settings, GMC : No warppoints
Format settings, Matrix : Custom
Codec ID : XVID
Codec ID/Hint : XviD
Duration : 1h 5mn
Bit rate : 1 459 Kbps
Width : 720 pixels
Height : 400 pixels
Display aspect ratio : 16:9
Frame rate : 25.000 fps
Color space : YUV
Chroma subsampling : 4:2:0
Bit depth : 8 bits
Scan type : Progressive
Compression mode : Lossy
Bits/(Pixel*Frame) : 0.203
Stream size : 680 MiB (91%)
Writing library : XviD 65
Audio
ID : 1
Format : MPEG Audio
Format version : Version 1
Format profile : Layer 3
Codec ID : 55
Codec ID/Hint : MP3
Duration : 1h 5mn
Bit rate mode : Constant
Bit rate : 128 Kbps
Channel(s) : 2 channels
Sampling rate : 48.0 KHz
Compression mode : Lossy
Stream size : 59.6 MiB (8%)
Alignment : Aligned on interleaves
Interleave, duration : 40 ms (1.00 video frame)
Interleave, preload duration : 504 ms
Writing library : LAME3.99r
Encoding settings : -m s -V 4 -q 2 -lowpass 17 -b 128
Все раздачи мультфильма!

_________________
Показать сообщения:    

Текущее время: Сегодня 08:51

Часовой пояс: GMT



Вы не можете начинать темы
Вы не можете отвечать на сообщения
Вы не можете редактировать свои сообщения
Вы не можете удалять свои сообщения
Вы не можете голосовать в опросах
Вы не можете прикреплять файлы к сообщениям
Вы не можете скачивать файлы