Важное объявление!
У Нас Все раздачи мультитрекерные, при нуле пиров в релизах, можете смело вставать на закачку!
Статистика раздачи
Размер:     |    Зарегистрирован:     |    Скачан:     |   
Нет
 
     
 
 
Автор Сообщение

HUNTER

Стаж:
5 лет
Сообщений:
67945

Репутация: 101

[+] [-]
Вне форума [Профиль] [ЛС]

Кикбоксер / Kickboxer
Страна: США
Студия: Imperial Entertainment Corporation, Guild, Sunil
Жанр: боевик, триллер, спорт
Год выпуска: 1989
Продолжительность: 01:37:30
Перевод 1: Профессиональный (многоголосый закадровый) СТС
Перевод 2: Профессиональный (двухголосый закадровый) Music-Traid
Перевод 3: Профессиональный (двухголосый закадровый) Инис
Перевод 4: Авторский (одноголосый закадровый) Андрей Гаврилов
Перевод 5: Авторский (одноголосый закадровый) Леонид Володарский
Перевод 6: Авторский (одноголосый закадровый) Григорий Либергал
Перевод 7: Авторский (одноголосый закадровый) Вартан Дохалов
Перевод 8: Одноголосый закадровый ТВ6
Перевод 9: Одноголосый закадровый Неизвестный
Cубтитры: русские, английские SRT
Оригинальная аудиодорожка: Английский
Режиссер: Марк Дисалле, Дэвид Уорт / Mark DiSalle, David Worth
В ролях: Жан-Клод Ван Дамм, Деннис Алексио, Деннис Чан, Мишель Кисси, Хэскелл В. Андерсон III, Рошель Ашана, Чиа Тинг Ли, Ричард Фу, Рикки Лю, Син Хо Йинг
Описание: Братья Курт и Эрик Слоан отправляются в Таиланд, на родину кикбоксинга, чтобы доказать местным бойцам превосходство американской школы над тайской. Эрик, чемпион Америки по кикбоксингу, встречается в бою с Тонг По, чемпионом Таиланда.
Тонг По оказывается сущим зверем. Он намеренно калечит уже обессилевшего Эрика Слоана, обрекая его на инвалидность. Курт поступает в обучение к мастеру тайской борьбы Зену, чтобы победить Тонг По и отомстить за парализованного брата.

Качество видео: BDRip 720p
Формат видео: MKV
Видео кодек: H264
Аудио кодек: AC3
Видео: 1280x694 (1.85:1), 23,976 fps, ~6030 kbps avg, 0.283 bit/pixel
Аудио 1: 48 kHz, AC3 Dolby Digital, 2/0 (L,R) ch, ~192 kbps - СТС
Аудио 2: 48 kHz, AC3 Dolby Digital, 3/2 (L,C,R,l,r) + LFE ch, ~448 kbps - Music-Traid
Аудио 3: 48 kHz, AC3 Dolby Digital, 2/0 (L,R) ch, ~192 kbps - Инис
Аудио 4: 48 kHz, AC3 Dolby Digital, 3/2 (L,C,R,l,r) + LFE ch, ~448 kbps - Гаврилов
Аудио 5: 48 kHz, AC3 Dolby Digital, 2/0 (L,R) ch, ~192 kbps - Володарский
Аудио 6: 48 kHz, AC3 Dolby Digital, 2/0 (L,R) ch, ~192 kbps - Либергал
Аудио 7: 48 kHz, AC3 Dolby Digital, 2/0 (L,R) ch, ~192 kbps - Дохалов
Аудио 8: 48 kHz, AC3 Dolby Digital, 2/0 (L,R) ch, ~192 kbps - ТВ6
Аудио 9: 48 kHz, AC3 Dolby Digital, 2/0 (L,R) ch, ~192 kbps - Неизвестный
Аудио 10: 48 kHz, AC3 Dolby Digital, 3/2 (L,C,R,l,r) + LFE ch, ~448 kbps - Оригинал

Спасибо

За рип спасибо msltel
bora86bora - за запись с ТВ через видеомагнитофон и оцифровку перевода ТВ-6
Примечание: Дорожка имеет несколько вставок Гаврилова на пропущенные интервалы (00:24:37 - 00:27:20; 00:42:14 - 00:44:08; 00:47:22 - 00:48:48; 00:51:06 - 00:53:58)
JUSTKANT - за работу со звуком.
За Володарского 21Sepsis
За Либергала BLACK BOX
За Неизвестного Sp1end1d
Cинхрон Володарского и Неизвестного - JUSTKANT
Перевод Володарского с видеокассеты, качество не очень хорошее + до 00:02:51 звук немного "жуёт", зато дальше идёт норм. Имеет несколько вставок Неизвестного на прерванные из за разрывов диалоги. Оба перевода были на полную версию фильма, в сети везде обрезанная версия

MediaInfo

Полное имя : Кикбоксер 1989.mkv
Формат : Matroska
Версия формата : Version 4 / Version 2
Размер файла : 6,06 Гбайт
Продолжительность : 1 ч. 37 м.
Общий поток : 8895 Кбит/сек
Дата кодирования : UTC 2014-12-19 13:30:04
Программа кодирования : mkvmerge v7.1.0 ('Good Love') 64bit built on Jul 27 2014 13:06:55
Библиотека кодирования : libebml v1.3.0 + libmatroska v1.4.1
DURATION : 01:37:30.528000000
NUMBER_OF_FRAMES : 182829
NUMBER_OF_BYTES : 140412672
_STATISTICS_WRITING_APP : mkvmerge v7.1.0 ('Good Love') 64bit built on Jul 27 2014 13:06:55
_STATISTICS_WRITING_DATE_UTC : 2014-12-19 13:30:04
_STATISTICS_TAGS : BPS DURATION NUMBER_OF_FRAMES NUMBER_OF_BYTES
Видео
Идентификатор : 1
Формат : AVC
Формат/Информация : Advanced Video Codec
Профиль формата : High@L4.1
Параметр CABAC формата : Да
Параметр ReFrames формата : 9 кадров
Идентификатор кодека : V_MPEG4/ISO/AVC
Продолжительность : 1 ч. 37 м.
Битрейт : 6030 Кбит/сек
Ширина : 1280 пикселей
Высота : 694 пикселя
Соотношение сторон : 1,85:1
Режим частоты кадров : Постоянный
Частота кадров : 23,976 кадра/сек
Цветовое пространство : YUV
Субдискретизация насыщенности : 4:2:0
Битовая глубина : 8 бит
Тип развёртки : Прогрессивная
Бит/(Пиксели*Кадры) : 0.283
Размер потока : 4,11 Гбайт (68%)
Библиотека кодирования : x264 core 142 r2431 ac76440
Настройки программы : cabac=1 / ref=9 / deblock=1:-1:-1 / analyse=0x3:0x113 / me=umh / subme=10 / psy=1 / psy_rd=1.00:0.15 / mixed_ref=1 / me_range=32 / chroma_me=1 / trellis=2 / 8x8dct=1 / cqm=0 / deadzone=21,11 / fast_pskip=0 / chroma_qp_offset=-3 / threads=6 / lookahead_threads=1 / sliced_threads=0 / nr=0 / decimate=1 / interlaced=0 / bluray_compat=0 / constrained_intra=0 / bframes=8 / b_pyramid=2 / b_adapt=2 / b_bias=0 / direct=1 / weightb=1 / open_gop=0 / weightp=2 / keyint=230 / keyint_min=23 / scenecut=40 / intra_refresh=0 / rc_lookahead=40 / rc=crf / mbtree=0 / crf=19.0 / qcomp=0.60 / qpmin=0 / qpmax=69 / qpstep=4 / vbv_maxrate=40000 / vbv_bufsize=50000 / crf_max=0.0 / nal_hrd=none / filler=0 / ip_ratio=1.40 / pb_ratio=1.30 / aq=1:1.00
Язык : English
Default : Да
Forced : Нет
DURATION : 01:37:30.553000000
NUMBER_OF_FRAMES : 140273
NUMBER_OF_BYTES : 4536136686
_STATISTICS_WRITING_APP : mkvmerge v7.1.0 ('Good Love') 64bit built on Jul 27 2014 13:06:55
_STATISTICS_WRITING_DATE_UTC : 2014-12-19 13:30:04
_STATISTICS_TAGS : BPS DURATION NUMBER_OF_FRAMES NUMBER_OF_BYTES
Аудио #1
Идентификатор : 2
Формат : AC-3
Формат/Информация : Audio Coding 3
Расширение режима : CM (complete main)
Параметр Endianness формата : Big
Идентификатор кодека : A_AC3
Продолжительность : 1 ч. 37 м.
Вид битрейта : Постоянный
Битрейт : 192 Кбит/сек
Каналы : 2 канала
Расположение каналов : Front: L R
Частота : 48,0 КГц
Битовая глубина : 16 бит
Метод сжатия : С потерями
Размер потока : 134 Мбайт (2%)
Заголовок : MVO CTC
Язык : Russian
Default : Да
Forced : Нет
Аудио #2
Идентификатор : 3
Формат : AC-3
Формат/Информация : Audio Coding 3
Расширение режима : CM (complete main)
Параметр Endianness формата : Big
Идентификатор кодека : A_AC3
Продолжительность : 1 ч. 37 м.
Вид битрейта : Постоянный
Битрейт : 448 Кбит/сек
Каналы : 6 каналов
Расположение каналов : Front: L C R, Side: L R, LFE
Частота : 48,0 КГц
Битовая глубина : 16 бит
Метод сжатия : С потерями
Размер потока : 312 Мбайт (5%)
Заголовок : DVO Music-Traid
Язык : Russian
Default : Нет
Forced : Нет
Аудио #3
Идентификатор : 4
Формат : AC-3
Формат/Информация : Audio Coding 3
Расширение режима : CM (complete main)
Параметр Endianness формата : Big
Идентификатор кодека : A_AC3
Продолжительность : 1 ч. 37 м.
Вид битрейта : Постоянный
Битрейт : 192 Кбит/сек
Каналы : 2 канала
Расположение каналов : Front: L R
Частота : 48,0 КГц
Битовая глубина : 16 бит
Метод сжатия : С потерями
Размер потока : 134 Мбайт (2%)
Заголовок : DVO Inis
Язык : Russian
Default : Нет
Forced : Нет
Аудио #4
Идентификатор : 5
Формат : AC-3
Формат/Информация : Audio Coding 3
Расширение режима : CM (complete main)
Параметр Endianness формата : Big
Идентификатор кодека : A_AC3
Продолжительность : 1 ч. 37 м.
Вид битрейта : Постоянный
Битрейт : 448 Кбит/сек
Каналы : 6 каналов
Расположение каналов : Front: L C R, Side: L R, LFE
Частота : 48,0 КГц
Битовая глубина : 16 бит
Метод сжатия : С потерями
Размер потока : 312 Мбайт (5%)
Заголовок : AVO Gavrilov
Язык : Russian
Default : Нет
Forced : Нет
Аудио #5
Идентификатор : 6
Формат : AC-3
Формат/Информация : Audio Coding 3
Расширение режима : CM (complete main)
Параметр Endianness формата : Big
Идентификатор кодека : A_AC3
Продолжительность : 1 ч. 37 м.
Вид битрейта : Постоянный
Битрейт : 192 Кбит/сек
Каналы : 2 канала
Расположение каналов : Front: L R
Частота : 48,0 КГц
Битовая глубина : 16 бит
Метод сжатия : С потерями
Размер потока : 134 Мбайт (2%)
Заголовок : AVO Volodarskij
Язык : Russian
Default : Нет
Forced : Нет
Аудио #6
Идентификатор : 7
Формат : AC-3
Формат/Информация : Audio Coding 3
Расширение режима : CM (complete main)
Параметр Endianness формата : Big
Идентификатор кодека : A_AC3
Продолжительность : 1 ч. 37 м.
Вид битрейта : Постоянный
Битрейт : 192 Кбит/сек
Каналы : 2 канала
Расположение каналов : Front: L R
Частота : 48,0 КГц
Битовая глубина : 16 бит
Метод сжатия : С потерями
Размер потока : 134 Мбайт (2%)
Заголовок : AVO Libergal
Язык : Russian
Default : Нет
Forced : Нет
Аудио #7
Идентификатор : 8
Формат : AC-3
Формат/Информация : Audio Coding 3
Расширение режима : CM (complete main)
Параметр Endianness формата : Big
Идентификатор кодека : A_AC3
Продолжительность : 1 ч. 37 м.
Вид битрейта : Постоянный
Битрейт : 192 Кбит/сек
Каналы : 2 канала
Расположение каналов : Front: L R
Частота : 48,0 КГц
Битовая глубина : 16 бит
Метод сжатия : С потерями
Размер потока : 134 Мбайт (2%)
Заголовок : AVO Dohalov
Язык : Russian
Default : Нет
Forced : Нет
Аудио #8
Идентификатор : 9
Формат : AC-3
Формат/Информация : Audio Coding 3
Расширение режима : CM (complete main)
Параметр Endianness формата : Big
Идентификатор кодека : A_AC3
Продолжительность : 1 ч. 37 м.
Вид битрейта : Постоянный
Битрейт : 192 Кбит/сек
Каналы : 2 канала
Расположение каналов : Front: L R
Частота : 48,0 КГц
Битовая глубина : 16 бит
Метод сжатия : С потерями
Размер потока : 134 Мбайт (2%)
Заголовок : VO TB6
Язык : Russian
Default : Нет
Forced : Нет
Аудио #9
Идентификатор : 10
Формат : AC-3
Формат/Информация : Audio Coding 3
Расширение режима : CM (complete main)
Параметр Endianness формата : Big
Идентификатор кодека : A_AC3
Продолжительность : 1 ч. 37 м.
Вид битрейта : Постоянный
Битрейт : 192 Кбит/сек
Каналы : 2 канала
Расположение каналов : Front: L R
Частота : 48,0 КГц
Битовая глубина : 16 бит
Метод сжатия : С потерями
Размер потока : 134 Мбайт (2%)
Заголовок : VO Unknown
Язык : Russian
Default : Нет
Forced : Нет
Аудио #10
Идентификатор : 11
Формат : AC-3
Формат/Информация : Audio Coding 3
Расширение режима : CM (complete main)
Параметр Endianness формата : Big
Идентификатор кодека : A_AC3
Продолжительность : 1 ч. 37 м.
Вид битрейта : Постоянный
Битрейт : 448 Кбит/сек
Каналы : 6 каналов
Расположение каналов : Front: L C R, Side: L R, LFE
Частота : 48,0 КГц
Битовая глубина : 16 бит
Метод сжатия : С потерями
Размер потока : 312 Мбайт (5%)
Заголовок : Original
Язык : English
Default : Нет
Forced : Нет
Текст #1
Идентификатор : 12
Формат : UTF-8
Идентификатор кодека : S_TEXT/UTF8
Идентификатор кодека/Информация : UTF-8 Plain Text
Заголовок : v1
Язык : Russian
Default : Нет
Forced : Нет
Текст #2
Идентификатор : 13
Формат : UTF-8
Идентификатор кодека : S_TEXT/UTF8
Идентификатор кодека/Информация : UTF-8 Plain Text
Заголовок : v2
Язык : Russian
Default : Нет
Forced : Нет
Текст #3
Идентификатор : 14
Формат : UTF-8
Идентификатор кодека : S_TEXT/UTF8
Идентификатор кодека/Информация : UTF-8 Plain Text
Заголовок : v1
Язык : English
Default : Нет
Forced : Нет
Текст #4
Идентификатор : 15
Формат : UTF-8
Идентификатор кодека : S_TEXT/UTF8
Идентификатор кодека/Информация : UTF-8 Plain Text
Заголовок : v2
Язык : English
Default : Нет
Forced : Нет
Меню
00:00:00.000 : :Chapter 01
00:11:16.217 : :Chapter 02
00:17:34.470 : :Chapter 03
00:27:19.512 : :Chapter 04
00:36:48.789 : :Chapter 05
00:44:06.769 : :Chapter 06
00:53:13.023 : :Chapter 07
01:01:34.691 : :Chapter 08
01:09:54.356 : :Chapter 09
01:16:38.051 : :Chapter 10
01:29:07.717 : :Chapter 11
01:33:34.567 : :Chapter 12

Скриншоты


_________________
Показать сообщения:    

Текущее время: Сегодня 00:59

Часовой пояс: GMT



Вы не можете начинать темы
Вы не можете отвечать на сообщения
Вы не можете редактировать свои сообщения
Вы не можете удалять свои сообщения
Вы не можете голосовать в опросах
Вы не можете прикреплять файлы к сообщениям
Вы не можете скачивать файлы