Ивановский Торрент трекер
Яндекс.Погода
 

[Цитировать]
mihis

Кикбоксер. Пенталогия / Kickboxer. Pentalogy5 фильмов

Кикбоксер / Kickboxer (1989) DVDRip

Кикбоксер / Kickboxer«If your enemy refuses to be humbled...Destroy Him!»Год выпуска: 1989
Производство: США
Жанр: Боевик, спорт
Продолжительность: 01:37:30
Перевод: Профессиональный (двухголосый закадровый)
Cубтитры: нет
Режиссер: Марк ДиСалле, Дэвид Уорт
В ролях: Жан-Клод Ван Дамм Деннис Алексио Деннис Чан Мишель Кисси Хэскелл В. Андерсон III Рошель Ашана Стив Ли Ричард Фу Рикки Лю Син Хо Йинг
Описание: Братья Курт и Эрик Слоан отправляются в Таиланд, на родину кикбоксинга, чтобы доказать местным бойцам превосходство американской школы над тайской. Эрик, чемпион Америки по кикбоксингу, встречается в бою с Тонг По, чемпионом Таиланда.
Тонг По оказывается сущим зверем. Он намеренно калечит уже обессилевшего Эрика Слоана, обрекая его на инвалидность. Курт поступает в обучение к мастеру тайской борьбы Зену, чтобы победить Тонг По и отомстить за парализованного брата.

Качество: DVDRip
Формат: AVI
Видео кодек: XviD
Аудио кодек: AC3
Видео: 720x400 (1.80:1), 23.976 fps, XviD build 47 ~1746 kbps avg, 0.25 bit/pixel
Аудио: 48 kHz, AC3 Dolby Digital, 3/2 (L,C,R,l,r) + LFE ch, ~384 kbps

MediaInfo

Кикбоксер DVDRip.avi
Format : AVI
Format/Info : Audio Video Interleave
File size : 1.46 GiB
Duration : 1h 37mn
Overall bit rate : 2 140 Kbps
Movie name : Кикбоксер / Kickboxer (1989)
Director : vladaudi (BDRip 720)
Writing application : VirtualDubMod 1.5.10.2 (build 2540/release)
Copyright : HQ-ViDEO (www.hq-video.ru)
Comment : 06.02.2009
Video
ID : 0
Format : MPEG-4 Visual
Format profile : Advanced Simple@L5
Format settings, BVOP : 1
Format settings, QPel : No
Format settings, GMC : No warppoints
Format settings, Matrix : Default (MPEG)
Codec ID : XVID
Codec ID/Hint : XviD
Duration : 1h 37mn
Bit rate : 1 747 Kbps
Width : 720 pixels
Height : 400 pixels
Display aspect ratio : 16:9
Original display aspect ratio : 16:9
Frame rate : 23.976 fps
Color space : YUV
Chroma subsampling : 4:2:0
Bit depth : 8 bits
Scan type : Progressive
Compression mode : Lossy
Bits/(Pixel*Frame) : 0.253
Stream size : 1.19 GiB (82%)
Writing library : XviD 1.2.0.dev47 (UTC 2006-11-01)
Audio
ID : 1
Format : AC-3
Format/Info : Audio Coding 3
Mode extension : CM (complete main)
Format settings, Endianness : Big
Codec ID : 2000
Duration : 1h 37mn
Bit rate mode : Constant
Bit rate : 384 Kbps
Channel(s) : 6 channels
Channel positions : Front: L C R, Side: L R, LFE
Sampling rate : 48.0 KHz
Bit depth : 16 bits
Compression mode : Lossy
Stream size : 268 MiB (18%)
Alignment : Split accross interleaves
Interleave, duration : 42 ms (1.00 video frame)
Interleave, preload duration : 500 ms

Кикбоксер 2: Дорога назад / Kickboxer 2: The Road Back(1990) DVDRip

Кикбоксер 2: Дорога назад / Kickboxer 2: The Road Back«A lethal kickboxer killed his brother. Now David Sloan must seek revenge the only way he knows how... in the ring»Год выпуска: 1990
Производство: США
Жанр: Боевик, спорт
Продолжительность: 01:30:33
Перевод: Профессиональный (двухголосый закадровый) НТВ
Cубтитры: нет
Режиссер: Альберт Пьюн
В ролях: Саша Митчелл, Питер Бойл, Деннис Чан, Кэри-Хироюки Тагава, Джон Дил, Мишель Кисси, Хизер МакКомб, Винс Мурдокко, Умберто Ортиз, Маттиас Хьюз
Описание: Дэвид Слоан — младший брат кикбоксеров Курта и Эрика Слоанов, героев первой части фильма. Дэвид преподает боевые искусства, но выходить на ринг за деньги отказывается.
Однако столкнувшись с финансовыми трудностями, ему приходится провести бой с лучшим учеником жестокой школы Масиа … и выиграть! Став чемпионом, он собирается уйти из этого спорта, окончательно в нем разочаровавшись. Но оказывается, что завязать с боями без правил так же сложно, как уйти из мафии — мало шансов остаться в живых.

Качество: DVDRip
Формат: AVI
Видео кодек: XviD
Аудио кодек: AC3
Видео: 720x544 (1.32:1), 23.976 fps, XviD build 47 ~2089 kbps avg, 0.22 bit/pixel
Аудио: 48 kHz, AC3 Dolby Digital, 2/0 (L,R) ch, ~192 kbps

MediaInfo

Кикбоксер 2 - Дорога Назад DVDRip.avi
Format : AVI
Format/Info : Audio Video Interleave
File size : 1.45 GiB
Duration : 1h 30mn
Overall bit rate : 2 291 Kbps
Writing application : VirtualDubMod 1.5.10.3 | www.virtualdub-fr.org || (build 2550/release)
Writing library : VirtualDubMod build 2550/release
Video
ID : 0
Format : MPEG-4 Visual
Format profile : Advanced Simple@L5
Format settings, BVOP : 1
Format settings, QPel : No
Format settings, GMC : No warppoints
Format settings, Matrix : Default (H.263)
Codec ID : XVID
Codec ID/Hint : XviD
Duration : 1h 30mn
Bit rate : 2 090 Kbps
Width : 720 pixels
Height : 544 pixels
Display aspect ratio : 4:3
Frame rate : 23.976 fps
Color space : YUV
Chroma subsampling : 4:2:0
Bit depth : 8 bits
Scan type : Progressive
Compression mode : Lossy
Bits/(Pixel*Frame) : 0.223
Stream size : 1.32 GiB (91%)
Writing library : XviD 1.2.0.dev47 (UTC 2006-11-01)
Audio
ID : 1
Format : AC-3
Format/Info : Audio Coding 3
Mode extension : CM (complete main)
Format settings, Endianness : Big
Codec ID : 2000
Duration : 1h 30mn
Bit rate mode : Constant
Bit rate : 192 Kbps
Channel(s) : 2 channels
Channel positions : Front: L R
Sampling rate : 48.0 KHz
Bit depth : 16 bits
Compression mode : Lossy
Stream size : 124 MiB (8%)
Alignment : Split accross interleaves
Interleave, duration : 42 ms (1.00 video frame)
Interleave, preload duration : 500 ms

Кикбоксер 3: Искусство войны / Kickboxer 3: The Art of War (1992) DVDRip

Кикбоксер 3: Искусство войны / Kickboxer 3: The Art of War«In The World's Deadliest Contest, There Can Only Be One Winner... And Only One Survivor!»Год выпуска: 1992
Производство: США
Жанр: Боевик, спорт
Продолжительность: 01:31:39
Перевод: Профессиональный (двухголосый закадровый) НТВ
Cубтитры: нет
Режиссер: Рик Кинг
В ролях: Саша Митчелл, Деннис Чан, Ричард Комар, Ной Вердузко, Алетеа Миранда, Милтон Гонсалвис, Рикардо Петралия, Грасинду Жуниор, Мигель Онига, Леонор Готтлиб
Описание: Американский чемпион по кикбоксингу Дэвид Слоун приглашен в экзотический Рио-де-Жанейро для участия в благотворительном соревновании. Там он подружился с уличной девчонкой Ларой, которую — с целью шантажа — похитил менеджер соперника Дэвида.
Сможет ли он спасти Лару и стать победителем? Или ему придется сделать другой выбор?

Качество: DVDRip
Формат: AVI
Видео кодек: XviD
Аудио кодек: AC3
Видео: 720x528 (1.36:1), 23.976 fps, XviD build 47 ~2081 kbps avg, 0.23 bit/pixel
Аудио: 48 kHz, AC3 Dolby Digital, 2/0 (L,R) ch, ~192 kbps

MediaInfo

Кикбоксер 3 - Искусство Войны DVDRip.avi
Format : AVI
Format/Info : Audio Video Interleave
File size : 1.46 GiB
Duration : 1h 31mn
Overall bit rate : 2 283 Kbps
Writing application : VirtualDubMod 1.5.10.3 | www.virtualdub-fr.org || (build 2550/release)
Writing library : VirtualDubMod build 2550/release
Video
ID : 0
Format : MPEG-4 Visual
Format profile : Advanced Simple@L5
Format settings, BVOP : 1
Format settings, QPel : No
Format settings, GMC : No warppoints
Format settings, Matrix : Default (MPEG)
Codec ID : XVID
Codec ID/Hint : XviD
Duration : 1h 31mn
Bit rate : 2 082 Kbps
Width : 720 pixels
Height : 528 pixels
Display aspect ratio : 4:3
Frame rate : 23.976 fps
Color space : YUV
Chroma subsampling : 4:2:0
Bit depth : 8 bits
Scan type : Progressive
Compression mode : Lossy
Bits/(Pixel*Frame) : 0.228
Stream size : 1.33 GiB (91%)
Writing library : XviD 1.2.0.dev47 (UTC 2006-11-01)
Audio
ID : 1
Format : AC-3
Format/Info : Audio Coding 3
Mode extension : CM (complete main)
Format settings, Endianness : Big
Codec ID : 2000
Duration : 1h 31mn
Bit rate mode : Constant
Bit rate : 192 Kbps
Channel(s) : 2 channels
Channel positions : Front: L R
Sampling rate : 48.0 KHz
Bit depth : 16 bits
Compression mode : Lossy
Stream size : 126 MiB (8%)
Alignment : Split accross interleaves
Interleave, duration : 42 ms (1.00 video frame)
Interleave, preload duration : 500 ms

Кикбоксер 4: Агрессор / Kickboxer 4: The Aggressor (1994) DVDRip

Кикбоксер 4: Агрессор / Kickboxer 4: The Aggressor«The Explosive Kickboxer Legacy Continues!»Год выпуска: 1994
Производство: США
Жанр: Боевик, спорт
Продолжительность: 01:29:40
Перевод: Профессиональный (двухголосый закадровый) REN-TV
Cубтитры: нет
Режиссер: Альберт Пьюн
В ролях: Саша Митчелл, Николас Гест, Мишель Красну, Брэд Торнтон, Дебора Мэнси, Джилл Пирс, Николас Энтони, Дерек Патридж, Том Мэтьюз, Бертон Ричардсон
Описание: Злодей Тонг По похищает миссис Слоун и сообщает об этом ее мужу, которого он же подставил и засадил в тюрьму. Агентство по борьбе с наркотиками обращается к Слоуну с предложением. Раз в год Тонг По устраивает в своей цитадели турниры по кикбоксингу с призом в миллион долларов.
Единственная возможность добраться до злодея — тоже принять участие в этом смертельном чемпионате под чужим именем. Слоуна выпускают из тюрьмы, он восстанавливает спортивную форму, и кикбоксинг начинается…

Качество: DVDRip
Формат: AVI
Видео кодек: XviD
Аудио кодек: AC3
Видео: 672x496 (1.35:1), 23.976 fps, XviD build 50 ~1925 kbps avg, 0.24 bit/pixel
Аудио: 48 kHz, AC3 Dolby Digital, 2/0 (L,R) ch, ~224 kbps

MediaInfo

Кикбоксер 4 - Агрессор DVDRip.avi
Format : AVI
Format/Info : Audio Video Interleave
File size : 1.35 GiB
Duration : 1h 29mn
Overall bit rate : 2 159 Kbps
Writing application : VirtualDubMod 1.5.10.3 | www.virtualdub-fr.org || (build 2550/release)
Writing library : VirtualDubMod build 2550/release
Video
ID : 0
Format : MPEG-4 Visual
Format profile : Advanced Simple@L5
Format settings, BVOP : 1
Format settings, QPel : No
Format settings, GMC : No warppoints
Format settings, Matrix : Custom
Codec ID : XVID
Codec ID/Hint : XviD
Duration : 1h 29mn
Bit rate : 1 926 Kbps
Width : 672 pixels
Height : 496 pixels
Display aspect ratio : 4:3
Frame rate : 23.976 fps
Color space : YUV
Chroma subsampling : 4:2:0
Bit depth : 8 bits
Scan type : Progressive
Compression mode : Lossy
Bits/(Pixel*Frame) : 0.241
Stream size : 1.21 GiB (89%)
Writing library : XviD 1.2.1 (UTC 2008-12-04)
Audio
ID : 1
Format : AC-3
Format/Info : Audio Coding 3
Mode extension : CM (complete main)
Format settings, Endianness : Big
Codec ID : 2000
Duration : 1h 29mn
Bit rate mode : Constant
Bit rate : 224 Kbps
Channel(s) : 2 channels
Channel positions : Front: L R
Sampling rate : 48.0 KHz
Bit depth : 16 bits
Compression mode : Lossy
Stream size : 144 MiB (10%)
Alignment : Split accross interleaves
Interleave, duration : 42 ms (1.00 video frame)
Interleave, preload duration : 500 ms

Кикбоксер 5: Возмездие / Kickboxer 5:The Redemption (1995) DVDRip

Кикбоксер 5: Возмездие / Kickboxer 5:The Redemption«Payback Can Be Deadly»Год выпуска: 1995
Производство: США
Жанр: Боевик, спорт
Продолжительность: 01:27:26
Перевод: Профессиональный (двухголосый закадровый) REN-TV
Cубтитры: нет
Режиссер: Кристин Питерсон
В ролях: Марк Дакаскос, Джеймс Райан, Джофф Мид, Тони Капрари, Грег Лэттер, Дуан Портер, Джордж Мулман, Рулан Бут, Роберт Уайтхед, Денни Пирс
Описание: Матт Ривз, завершив свою спортивную карьеру, совершенствует мастерство, преподает боевые искусства и тренирует своего друга Джонни Стайлса. По совету Матта Джонни отказывается подписывать контракт с незаконной федерацией из Южной Африки и Матт находит своего ученика мертвым.
Для того, чтобы отомстить Матт отправляется в ЮАР, где находит убийцу в принадлежащем ему частном казино — этакой смеси Лас — Вегаса и дикой Африки. Оба противника весьма искусные бойцы и схватка происходит почти на равных, однако на стороне Матта правда и справедливость, во имя которых он и побеждает.

Качество: DVDRip
Формат: AVI
Видео кодек: XviD
Аудио кодек: AC3
Видео: 624x480 (1.30:1), 23.976 fps, XviD build 64 ~1994 kbps avg, 0.28 bit/pixel
Аудио: 48 kHz, AC3 Dolby Digital, 2/0 (L,R) ch, ~224 kbps

MediaInfo

Кикбоксер 5 - Возмездие DVDRip.avi
Format : AVI
Format/Info : Audio Video Interleave
File size : 1.36 GiB
Duration : 1h 27mn
Overall bit rate : 2 228 Kbps
Movie name : Kikbokser.5.Vozmezdie.1995.DUAL.DVDRip.XviD.AC3.-AngelOfTrue
Director : AngelOfTrue
Writing application : VirtualDubMod 1.5.10.3 | www.virtualdub-fr.org || (build 2550/release)
Writing library : VirtualDubMod build 2550/release
Video
ID : 0
Format : MPEG-4 Visual
Format profile : Advanced Simple@L5
Format settings, BVOP : 2
Format settings, QPel : No
Format settings, GMC : No warppoints
Format settings, Matrix : Custom
Codec ID : XVID
Codec ID/Hint : XviD
Duration : 1h 27mn
Bit rate : 1 994 Kbps
Width : 624 pixels
Height : 480 pixels
Display aspect ratio : 4:3
Frame rate : 23.976 fps
Color space : YUV
Chroma subsampling : 4:2:0
Bit depth : 8 bits
Scan type : Progressive
Compression mode : Lossy
Bits/(Pixel*Frame) : 0.278
Stream size : 1.22 GiB (90%)
Writing library : XviD 64
Audio
ID : 1
Format : AC-3
Format/Info : Audio Coding 3
Mode extension : CM (complete main)
Format settings, Endianness : Big
Codec ID : 2000
Duration : 1h 27mn
Bit rate mode : Constant
Bit rate : 224 Kbps
Channel(s) : 2 channels
Channel positions : Front: L R
Sampling rate : 48.0 KHz
Bit depth : 16 bits
Compression mode : Lossy
Stream size : 140 MiB (10%)
Alignment : Split accross interleaves
Interleave, duration : 42 ms (1.00 video frame)
Interleave, preload duration : 500 ms
Показать сообщения:    

Текущее время: 21-Окт 03:38

Часовой пояс: UTC - 1


Вы не можете начинать темы
Вы не можете отвечать на сообщения
Вы не можете редактировать свои сообщения
Вы не можете удалять свои сообщения
Вы не можете голосовать в опросах
Вы не можете прикреплять файлы к сообщениям
Вы не можете скачивать файлы

!ВНИМАНИЕ!
Сайт не предоставляет электронные версии произведений, а занимается лишь коллекционированием и каталогизацией ссылок, присылаемых и публикуемых на форуме нашими читателями. Если вы являетесь правообладателем какого-либо представленного материала и не желаете, чтобы ссылка на него находилась в нашем каталоге, свяжитесь с нами, и мы незамедлительно удалим ее. Файлы для обмена на трекере предоставлены пользователями сайта, и администрация не несет ответственности за их содержание. Просьба не заливать файлы, защищенные авторскими правами, а также файлы нелегального содержания!