Важное объявление!
У Нас Все раздачи мультитрекерные, при нуле пиров в релизах, можете смело вставать на закачку!
 
Автор Сообщение

HUNTER

Стаж:
4 года 7 месяцев
Сообщений:
61590

Репутация: 101

[+] [-]
Вне форума [Профиль] [ЛС]

-Киборг-полицейский / Cyborg Cop-
Страна: США
Жанр: фантастика, боевик
Год выпуска: 1993
Продолжительность: 01:32:17
Перевод: Авторский (одноголосый закадровый) - Живов
Оригинальная аудиодорожка: английский
Cубтитры: нет
Режиссер: Сэм Ферстенберг /Sam Firstenberg
В ролях: Дэвид Брэдли /David Bradley/, Тодд Дженсен /Todd Jensen/, Элонна Шоу /Alonna Shaw/, Руфус Суорт /Rufus Swart/, Джон Риз-Дэйвис /John Rhys-Davies/
Описание: Двоих полицейских, братьев, увольняют с работы за то, что они убили маньяка, взявшего в заложницы девушку. Маньяк оказался сыном крупного издателя. После этого им предложили опасное задание, а один из братьев (Брэдли) отказался. Задание оказалось ловушкой - отряд был уничтожен, а злодей-ученый Джон Рис-Дэвис превратил брата в киборга-убийцу в своей лаборатории. Потом эти существа продавались всем, у кого на это были деньги. Узнав, что его брат пропал, Брэдли отправляется его выручать. И надо сказать, что этот парень, знакомый нам по фильму "Американский нинзя 3", умел за себя постоять.
Доп. информация:
слоган: «Programmed to kill... He is unstoppable.»
сценарий: Грег Лэттер
продюсер: Авэ Лернер, Дэнни Лернер, Joanna Plafsky
оператор: Йосси Вейн
композитор: Пол Фишман
премьера (мир): 4 сентября 1993

kinopoisk.ru: 6.286 (21)
imdb.com: 3.30 (321)

Семпл: 11,3мб
Исходник: dvd5

Качество видео: DVDRip-AVC
Формат видео: MKV
Видео: размер кадра: 704x576 @ 751x576, 25 fps, битрейт: 1875 кб/с
Аудио 1: аудиокодек: AC3 2.0, 48 KHz, битрейт аудио: 192 кб/с - Живов
Аудио 2: аудиокодек: AC3 2.0, 48 KHz, битрейт аудио: 192 кб/с - Оригинал

Bitrate Viewer

MediaInfo

Format : Matroska
File size : 1.46 GiB
Duration : 1h 32mn
Overall bit rate : 2 261 Kbps
Encoded date : UTC 2010-09-04 07:16:52
Writing application : mkvmerge v3.3.0 ('Language') built on Mar 24 2010 14:59:24
Writing library : libebml v0.8.0 + libmatroska v0.9.0
Video
ID : 1
Format : AVC
Format/Info : Advanced Video Codec
Format profile : High@L3.1
Format settings, CABAC : Yes
Format settings, ReFrames : 11 frames
Muxing mode : Container profile=Unknown@3.1
Codec ID : V_MPEG4/ISO/AVC
Duration : 1h 32mn
Bit rate : 1 832 Kbps
Nominal bit rate : 1 875 Kbps
Width : 704 pixels
Height : 576 pixels
Display aspect ratio : 4:3
Frame rate : 25.000 fps
Resolution : 24 bits
Colorimetry : 4:2:0
Scan type : Progressive
Bits/(Pixel*Frame) : 0.181
Stream size : 1.18 GiB (81%)
Title : Киборг - Полицейский
Writing library : x264 core 104 r1703 cd21d05
Encoding settings : cabac=1 / ref=11 / deblock=1:-2:-1 / analyse=0x3:0x133 / me=umh / subme=10 / psy=1 / psy_rd=1.00:0.20 / mixed_ref=1 / me_range=24 / chroma_me=1 / trellis=2 / 8x8dct=1 / cqm=0 / deadzone=21,11 / fast_pskip=1 / chroma_qp_offset=-3 / threads=6 / sliced_threads=0 / nr=0 / decimate=1 / interlaced=0 / constrained_intra=0 / bframes=4 / b_pyramid=2 / b_adapt=2 / b_bias=0 / direct=3 / weightb=1 / open_gop=0 / weightp=2 / keyint=250 / keyint_min=25 / scenecut=40 / intra_refresh=0 / rc_lookahead=60 / rc=2pass / mbtree=1 / bitrate=1875 / ratetol=1.0 / qcomp=0.60 / qpmin=10 / qpmax=51 / qpstep=4 / cplxblur=20.0 / qblur=0.5 / ip_ratio=1.40 / aq=1:1.00
Language : English
Audio #1
ID : 2
Format : AC-3
Format/Info : Audio Coding 3
Codec ID : A_AC3
Duration : 1h 32mn
Bit rate mode : Constant
Bit rate : 192 Kbps
Channel(s) : 2 channels
Channel positions : L R
Sampling rate : 48.0 KHz
Stream size : 127 MiB (8%)
Title : Живов
Language : Russian
Audio #2
ID : 3
Format : AC-3
Format/Info : Audio Coding 3
Codec ID : A_AC3
Duration : 1h 32mn
Bit rate mode : Constant
Bit rate : 192 Kbps
Channel(s) : 2 channels
Channel positions : L R
Sampling rate : 48.0 KHz
Stream size : 127 MiB (8%)
Title : Оригинал
Language : English

-
-Киборг-полицейский 2 / Cyborg Cop II-
Страна: США
Жанр: Боевик, фантастика
Год выпуска: 1994
Продолжительность: 01:33:24
Перевод: Авторский (одноголосый закадровый) - Живов
Оригинальная аудиодорожка: английский
Cубтитры: нет
Режиссер: Сэм Ферстенберг /Sam Firstenberg
В ролях: Дэвид Брэдли /David Bradley/, Морган Хантер /Morgan Hunter/, Джилл Пирс /Jill Pierce/, Дэйл Каттс /Dale Cutts/, Виктор Меллани /Victor Melleney/, Эктор Работапи /Hector Rabotapi/, Даглас Бристоу /Douglas Bristow/
Описание: В этом фантастическом боевике Дэвид Брэдли в роли полицейского, потерявшего напарника во время ареста жестокого убийцы (Хантер), опасного торговца наркотиками. Убийцу приговорили к смертной казни, но вскоре Брэдли прочитал в газете, что тот бежал. Начав поиски против воли начальства, он узнает, что бандит не бежал, а был вывезен секретной правительственной организацией. Оказывается, его использовали в программе производства киборгов, которые выбрали удобный момент и восстали против людей. Киборги хотели заставить людей собрать целую армию биороботов, а потом уничтожить человечество навсегда. Среди этих киборгов оказался, как вы уже, наверняка, догадались, и наш бандит. И все бы у них получилось, если бы на него не "закатил обидку" наш герой.
Доп. информация:
слоган: «Get ready for war.»
сценарий: Сэм Фёрстенберг, Джон Стивенс
продюсер: Джефф Альберт, Дэнни Димборт, Авэ Лернер, ...
оператор: Йосси Вейн
композитор: Bob Mithoff
премьера (мир): 18 октября 1994

kinopoisk.ru: 7.444 (18)
imdb.com: 3.30 (187)

Семпл: 14,3мб
Исходник: dvd5

Качество видео: DVDRip-AVC
Формат видео: MKV
Видео: размер кадра: 704x568 @ 751x568, 25 fps, битрейт: 1845 кб/с
Аудио 1: аудиокодек: AC3 2.0, 48 KHz, битрейт аудио: 192 кб/с - Живов
Аудио 2: аудиокодек: AC3 2.0, 48 KHz, битрейт аудио: 192 кб/с - Оригинал

Bitrate Viewer

MediaInfo

Format : Matroska
File size : 1.46 GiB
Duration : 1h 33mn
Overall bit rate : 2 231 Kbps
Encoded date : UTC 2010-09-05 08:07:33
Writing application : mkvmerge v3.3.0 ('Language') built on Mar 24 2010 14:59:24
Writing library : libebml v0.8.0 + libmatroska v0.9.0
Video
ID : 1
Format : AVC
Format/Info : Advanced Video Codec
Format profile : High@L3.1
Format settings, CABAC : Yes
Format settings, ReFrames : 11 frames
Muxing mode : Container profile=Unknown@3.1
Codec ID : V_MPEG4/ISO/AVC
Duration : 1h 33mn
Bit rate : 1 803 Kbps
Nominal bit rate : 1 845 Kbps
Width : 704 pixels
Height : 568 pixels
Display aspect ratio : 4:3
Frame rate : 25.000 fps
Resolution : 24 bits
Colorimetry : 4:2:0
Scan type : Progressive
Bits/(Pixel*Frame) : 0.180
Stream size : 1.18 GiB (81%)
Title : Киборг - Полицейский 2
Writing library : x264 core 104 r1713 c276662
Encoding settings : cabac=1 / ref=11 / deblock=1:-2:-1 / analyse=0x3:0x133 / me=umh / subme=10 / psy=1 / psy_rd=1.00:0.20 / mixed_ref=1 / me_range=24 / chroma_me=1 / trellis=2 / 8x8dct=1 / cqm=0 / deadzone=21,11 / fast_pskip=1 / chroma_qp_offset=-3 / threads=6 / sliced_threads=0 / nr=0 / decimate=1 / interlaced=0 / constrained_intra=0 / bframes=4 / b_pyramid=2 / b_adapt=2 / b_bias=0 / direct=3 / weightb=1 / open_gop=0 / weightp=2 / keyint=250 / keyint_min=25 / scenecut=40 / intra_refresh=0 / rc_lookahead=60 / rc=2pass / mbtree=1 / bitrate=1845 / ratetol=1.0 / qcomp=0.60 / qpmin=10 / qpmax=51 / qpstep=4 / cplxblur=20.0 / qblur=0.5 / ip_ratio=1.40 / aq=1:1.00
Language : English
Audio #1
ID : 2
Format : AC-3
Format/Info : Audio Coding 3
Codec ID : A_AC3
Duration : 1h 33mn
Bit rate mode : Constant
Bit rate : 192 Kbps
Channel(s) : 2 channels
Channel positions : L R
Sampling rate : 48.0 KHz
Stream size : 128 MiB (9%)
Title : Живов
Language : Russian
Audio #2
ID : 3
Format : AC-3
Format/Info : Audio Coding 3
Codec ID : A_AC3
Duration : 1h 33mn
Bit rate mode : Constant
Bit rate : 192 Kbps
Channel(s) : 2 channels
Channel positions : L R
Sampling rate : 48.0 KHz
Stream size : 128 MiB (9%)
Title : Оригинал
Language : English

-
-Киборг-полицейский 3 / Cyborg Cop III-
Страна: США
Жанр: Боевик, фантастика
Год выпуска: 1995
Продолжительность: 01:30:12
Перевод: Авторский (одноголосый закадровый) - Гаврилов
Оригинальная аудиодорожка: английский
Cубтитры: нет
Режиссер: Йосси Уайн /Yossi Wein
В ролях: Фрэнк Загарино /Frank Zagarino/, Брайан Дженесс /Bryan Genesse/, Дженнифер Миллер /Jennifer Miller/, Иэн Робертс /Ian Roberts/, Джастин Иллюжн /Justin Illusion/, Майкл Браннер /Michael Brunner/
Описание: В пылу погони охотник легко забывает, что в любую минуту сам может стать жертвой. Макс (Брайан Дженесси) и "Святой" (Загарино), помощники федерального маршала, разыскав по заданию компании "ДЕЛЬТА-ТЕК" тележурналистку Эвелин Рид (Дженнифер Миллер), сами оказываются в положении преследуемых... Замена актеров и режиссера не повлияли на качество картины. Сценаристы Деннис Димстер Денк и Джефф Алберт добавили юмора.
Доп. информация:
сценарий: Джефф Альберт, Дэннис Димстер
продюсер: Дэнни Димборт, Авэ Лернер, Дэнни Лернер, ...
оператор: Род Стюарт
композитор: Sam Sklair
премьера (мир): 16 апреля 1996

kinopoisk.ru: 7.000 (16)
imdb.com: 2.80 (92)

Семпл: 27,9мб
Исходник: dvd5

Качество видео: DVDRip-AVC
Формат видео: MKV
Видео: размер кадра: 704x568 @ 746x568, 25 fps, битрейт: 1925 кб/с
Аудио 1: аудиокодек: AC3 2.0, 48 KHz, битрейт аудио: 192 кб/с - Гаврилов
Аудио 2: аудиокодек: AC3 2.0, 48 KHz, битрейт аудио: 192 кб/с - Оригинал

Bitrate Viewer

MediaInfo

Format : Matroska
File size : 1.46 GiB
Duration : 1h 30mn
Overall bit rate : 2 311 Kbps
Encoded date : UTC 2010-09-05 08:14:53
Writing application : mkvmerge v3.3.0 ('Language') built on Mar 24 2010 14:59:24
Writing library : libebml v0.8.0 + libmatroska v0.9.0
Video
ID : 1
Format : AVC
Format/Info : Advanced Video Codec
Format profile : High@L3.1
Format settings, CABAC : Yes
Format settings, ReFrames : 11 frames
Muxing mode : Container profile=Unknown@3.1
Codec ID : V_MPEG4/ISO/AVC
Duration : 1h 30mn
Bit rate : 1 881 Kbps
Nominal bit rate : 1 925 Kbps
Width : 704 pixels
Height : 568 pixels
Display aspect ratio : 4:3
Frame rate : 25.000 fps
Resolution : 24 bits
Colorimetry : 4:2:0
Scan type : Progressive
Bits/(Pixel*Frame) : 0.188
Stream size : 1.19 GiB (81%)
Title : Киборг - Полицейский 3
Writing library : x264 core 104 r1713 c276662
Encoding settings : cabac=1 / ref=11 / deblock=1:-2:-1 / analyse=0x3:0x133 / me=umh / subme=10 / psy=1 / psy_rd=1.00:0.20 / mixed_ref=1 / me_range=24 / chroma_me=1 / trellis=2 / 8x8dct=1 / cqm=0 / deadzone=21,11 / fast_pskip=1 / chroma_qp_offset=-3 / threads=6 / sliced_threads=0 / nr=0 / decimate=1 / interlaced=0 / constrained_intra=0 / bframes=4 / b_pyramid=2 / b_adapt=2 / b_bias=0 / direct=3 / weightb=1 / open_gop=0 / weightp=2 / keyint=250 / keyint_min=25 / scenecut=40 / intra_refresh=0 / rc_lookahead=60 / rc=2pass / mbtree=1 / bitrate=1925 / ratetol=1.0 / qcomp=0.60 / qpmin=10 / qpmax=51 / qpstep=4 / cplxblur=20.0 / qblur=0.5 / ip_ratio=1.40 / aq=1:1.00
Language : English
Audio #1
ID : 2
Format : AC-3
Format/Info : Audio Coding 3
Codec ID : A_AC3
Duration : 1h 30mn
Bit rate mode : Constant
Bit rate : 192 Kbps
Channel(s) : 2 channels
Channel positions : L R
Sampling rate : 48.0 KHz
Stream size : 124 MiB (8%)
Title : Гаврилов
Language : Russian
Audio #2
ID : 3
Format : AC-3
Format/Info : Audio Coding 3
Codec ID : A_AC3
Duration : 1h 30mn
Bit rate mode : Constant
Bit rate : 192 Kbps
Channel(s) : 2 channels
Channel positions : L R
Sampling rate : 48.0 KHz
Stream size : 124 MiB (8%)
Title : Оригинал
Language : English
-

_________________
Показать сообщения:    

Текущее время: Сегодня 14:53

Часовой пояс: GMT



Вы не можете начинать темы
Вы не можете отвечать на сообщения
Вы не можете редактировать свои сообщения
Вы не можете удалять свои сообщения
Вы не можете голосовать в опросах
Вы не можете прикреплять файлы к сообщениям
Вы не можете скачивать файлы
Наши партнеры: интернет магазин Ивановского трикотажа textilla.ru