Важное объявление!
У Нас Все раздачи мультитрекерные, при нуле пиров в релизах, можете смело вставать на закачку!
Статистика раздачи
Размер:     |    Зарегистрирован:     |    Скачан:     |   
Нет
 
     
 
 
Автор Сообщение

HUNTER

Стаж:
5 лет
Сообщений:
67958

Репутация: 101

[+] [-]
Вне форума [Профиль] [ЛС]

-Кибер / Blackhat-«Вы больше не можете защитить себя»
-Страна: США
Студия: Forward Pass, Legendary Pictures
Жанр: боевик, триллер, драма, криминал, детектив
Год выпуска: 2015
Мировая премьера: 15 января 2015
Российская премьера: 29 января 2015, «UPI»
Дата выхода DVD: 14 мая 2015, «Двадцатый Век Фокс СНГ»
Дата выхода Blu-Ray: 14 мая 2015, «Двадцатый Век Фокс СНГ»
Продолжительность: 02:07:29
Перевод: Профессиональный (дублированный) [Лицензия]
Cубтитры: русские, английские, чешские, венгерские, болгарские, хорватские, эстонские, греческие, иврит, латышские, литовские, польские, румынские, словенские
Оригинальная аудиодорожка: английский-Режиссер: Майкл Манн / Michael Mann-В ролях: Крис Хемсворт, Ван Лихом, Тан Вэй, Виола Дэвис, Холт МакКэллани, Энди Он, Ричи Костер, Кристиан Борл, Джон Ортис, Йорик ван Вагенинген, Тайсон Чак, Брэндон Молале, Дэнни Бурстейн, Арчи Као, Абхи Синха, Джейсон Батлер Харнер, Мэнни Монтана, Спенсер Гаррет, Ши Лян, Кан Мок-Описание: Спокойная, размеренная жизнь современного мирового пространства. Кажется, что ничто не может нарушить равномерный, плавный ход событий, жизнь настолько механизирована, все рассчитано до мельчайшей детали, казалось бы, что может произойти? Какое событие может выбить из колеи столь идеально отлаженную машину? Однако именно разработки в области новейших технологий представляют главную угрозу человечеству. Лучшие ученые умы из США и Китая объединяют силы в борьбе против самой мощной кибернетической атаки.-Бонусы: нет- -Качество: DVD9 R5
Формат: DVD-Video
Видео кодек: MPEG2
Аудио кодек: AC3
Видео: PAL 16:9 (720x576(0.524)) MPEG Video, 25,000 кадр/сек, 5429 Кбит/сек
Аудио #1: English (Dolby AC3, 6 ch) 384 Кбит/сек, 48,0 КГц
Аудио #2: Czech(Ceske) (Dolby AC3, 6 ch) 384 Кбит/сек, 48,0 КГц
Аудио #3: Magyar (Dolby AC3, 6 ch) 384 Кбит/сек, 48,0 КГц
Аудио #4: Polish (Dolby AC3, 6 ch) 384 Кбит/сек, 48,0 КГц
Аудио #5: Russian (Dolby AC3, 6 ch) 384 Кбит/сек, 48,0 КГц--

DVDInfo

Title:
Size: 6.83 Gb ( 7 158 028 KBytes ) - DVD-9
Enabled regions: 1, 2, 3, 4, 5, 6, 7, 8
VTS_01 :
Play Length: 00:00:25
Video: PAL 16:9 (720x576) VBR, Auto Pan&Scan
Audio:
English (Dolby AC3, 6 ch)
VTS_02 :
Play Length:
Video: PAL 16:9 (720x576) VBR, Auto Pan&Scan
Audio:
English (Dolby AC3, 2 ch)
English (Dolby AC3, 2 ch)
English (Dolby AC3, 2 ch)
English (Dolby AC3, 2 ch)
English (Dolby AC3, 2 ch)
English (Dolby AC3, 2 ch)
English (Dolby AC3, 2 ch)
English (Dolby AC3, 2 ch)
Subtitles:
English
VTS_03 :
Play Length:
Video: PAL 16:9 (720x576) VBR, Auto Pan&Scan
VTS_04 :
Play Length:
Video: PAL 16:9 (720x576) VBR, Auto Pan&Scan
VTS_05 :
Play Length: 02:07:29
Video: PAL 16:9 (720x576) VBR, Auto Pan&Scan
Audio:
English (Dolby AC3, 6 ch)
Czech(Ceske) (Dolby AC3, 6 ch)
Magyar (Dolby AC3, 6 ch)
Polish (Dolby AC3, 6 ch)
Russian (Dolby AC3, 6 ch)
Subtitles:
English
Czech(Ceske)
Magyar
Polish
Russian
Bulgarian
Hrvatski
Estonian
Greek
Hebrew
Latvian
Lithuanian
Romanian
Slovenian
Ukrainian
English
Czech(Ceske)
Magyar
Russian
VTS_06 :
Play Length: 00:00:14
Video: PAL 16:9 (720x576) VBR, Auto Pan&Scan
Audio:
English (Dolby AC3, 6 ch)
VTS_07 :
Play Length: 00:02:18
Video: PAL 16:9 (720x576) VBR, Auto Pan&Scan
Audio:
English (Dolby AC3, 2 ch)
Subtitles:
English
Czech(Ceske)
Magyar
Polish
Russian
Bulgarian
Greek
Hebrew
Romanian
VTS_08 :
Play Length: 00:00:08
Video: PAL 16:9 (720x576) VBR, Auto Pan&Scan
Audio:
English (Dolby AC3, 2 ch)
Menu Video:
PAL 16:9 (720x576) VBR
Auto Letterboxed
Menu Subtitles:
Not specified
Menu English Language Unit :
Root Menu
Subpicture Menu
Audio Menu
Angle menu
Chapter (PTT) Menu

MediaInfo

Общее
Полное имя : H:\Новинки 2015\Kiber.2015.DVD9\VIDEO_TS\VTS_05_2.VOB
Формат : MPEG-PS
Размер файла : 1024 Мбайт
Продолжительность : 19 м.
Режим общего битрейта : Переменный
Общий поток : 7498 Кбит/сек
Видео
Идентификатор : 224 (0xE0)
Формат : MPEG Video
Версия формата : Version 2
Профиль формата : Main@Main
Параметр BVOP формата : Да
Параметр матрицы формата : Выборочная
Параметр GOP формата : Variable
Структура изображения : Frame
Продолжительность : 19 м.
Вид битрейта : Переменный
Битрейт : 5429 Кбит/сек
Максимальный битрейт : 9800 Кбит/сек
Ширина : 720 пикселей
Высота : 576 пикселей
Соотношение сторон : 16:9
Частота кадров : 25,000 кадров/сек
Стандарт вещания : PAL
Цветовое пространство : YUV
Субдискретизация насыщенности : 4:2:0
Битовая глубина : 8 бит
Тип развёртки : Чересстрочная
Порядок развёртки : Верхнее поле первое
Метод сжатия : С потерями
Бит/(Пиксели*Кадры) : 0.524
Временной код первого кадра : 01:18:57:15
Оригинал временного кода : Group of pictures header
GOP, открыто/закрыто : Открыто
Размер потока : 741 Мбайт (72%)
Аудио #1
Идентификатор : 189 (0xBD)-128 (0x80)
Формат : AC-3
Формат/Информация : Audio Coding 3
Расширение режима : CM (complete main)
Параметр Endianness формата : Big
Режим смешивания : DVD-Video
Продолжительность : 19 м.
Вид битрейта : Постоянный
Битрейт : 384 Кбит/сек
Каналы : 6 каналов
Расположение каналов : Front: L C R, Side: L R, LFE
Частота : 48,0 КГц
Метод сжатия : С потерями
Задержка видео : -312 мс.
Размер потока : 52,4 Мбайт (5%)
Аудио #2
Идентификатор : 189 (0xBD)-129 (0x81)
Формат : AC-3
Формат/Информация : Audio Coding 3
Расширение режима : CM (complete main)
Параметр Endianness формата : Big
Режим смешивания : DVD-Video
Продолжительность : 19 м.
Вид битрейта : Постоянный
Битрейт : 384 Кбит/сек
Каналы : 6 каналов
Расположение каналов : Front: L C R, Side: L R, LFE
Частота : 48,0 КГц
Метод сжатия : С потерями
Задержка видео : -312 мс.
Размер потока : 52,4 Мбайт (5%)
Аудио #3
Идентификатор : 189 (0xBD)-130 (0x82)
Формат : AC-3
Формат/Информация : Audio Coding 3
Расширение режима : CM (complete main)
Параметр Endianness формата : Big
Режим смешивания : DVD-Video
Продолжительность : 19 м.
Вид битрейта : Постоянный
Битрейт : 384 Кбит/сек
Каналы : 6 каналов
Расположение каналов : Front: L C R, Side: L R, LFE
Частота : 48,0 КГц
Метод сжатия : С потерями
Задержка видео : -312 мс.
Размер потока : 52,4 Мбайт (5%)
Аудио #4
Идентификатор : 189 (0xBD)-131 (0x83)
Формат : AC-3
Формат/Информация : Audio Coding 3
Расширение режима : CM (complete main)
Параметр Endianness формата : Big
Режим смешивания : DVD-Video
Продолжительность : 19 м.
Вид битрейта : Постоянный
Битрейт : 384 Кбит/сек
Каналы : 6 каналов
Расположение каналов : Front: L C R, Side: L R, LFE
Частота : 48,0 КГц
Метод сжатия : С потерями
Задержка видео : -312 мс.
Размер потока : 52,4 Мбайт (5%)
Аудио #5
Идентификатор : 189 (0xBD)-132 (0x84)
Формат : AC-3
Формат/Информация : Audio Coding 3
Расширение режима : CM (complete main)
Параметр Endianness формата : Big
Режим смешивания : DVD-Video
Продолжительность : 19 м.
Вид битрейта : Постоянный
Битрейт : 384 Кбит/сек
Каналы : 6 каналов
Расположение каналов : Front: L C R, Side: L R, LFE
Частота : 48,0 КГц
Метод сжатия : С потерями
Задержка видео : -312 мс.
Размер потока : 52,4 Мбайт (5%)
Текст #1
Идентификатор : 189 (0xBD)-32 (0x20)
Формат : RLE
Формат/Информация : Run-length encoding
Режим смешивания : DVD-Video
Задержка видео : 640 мс.
Текст #2
Идентификатор : 189 (0xBD)-33 (0x21)
Формат : RLE
Формат/Информация : Run-length encoding
Режим смешивания : DVD-Video
Продолжительность : 19 м.
Задержка видео : 600 мс.
Текст #3
Идентификатор : 189 (0xBD)-34 (0x22)
Формат : RLE
Формат/Информация : Run-length encoding
Режим смешивания : DVD-Video
Продолжительность : 19 м.
Задержка видео : 600 мс.
Текст #4
Идентификатор : 189 (0xBD)-35 (0x23)
Формат : RLE
Формат/Информация : Run-length encoding
Режим смешивания : DVD-Video
Задержка видео : 600 мс.
Текст #5
Идентификатор : 189 (0xBD)-36 (0x24)
Формат : RLE
Формат/Информация : Run-length encoding
Режим смешивания : DVD-Video
Задержка видео : 600 мс.
Текст #6
Идентификатор : 189 (0xBD)-37 (0x25)
Формат : RLE
Формат/Информация : Run-length encoding
Режим смешивания : DVD-Video
Продолжительность : 19 м.
Задержка видео : 640 мс.
Текст #7
Идентификатор : 189 (0xBD)-38 (0x26)
Формат : RLE
Формат/Информация : Run-length encoding
Режим смешивания : DVD-Video
Продолжительность : 19 м.
Задержка видео : 600 мс.
Текст #8
Идентификатор : 189 (0xBD)-39 (0x27)
Формат : RLE
Формат/Информация : Run-length encoding
Режим смешивания : DVD-Video
Задержка видео : 600 мс.
Текст #9
Идентификатор : 189 (0xBD)-40 (0x28)
Формат : RLE
Формат/Информация : Run-length encoding
Режим смешивания : DVD-Video
Продолжительность : 19 м.
Задержка видео : 600 мс.
Текст #10
Идентификатор : 189 (0xBD)-41 (0x29)
Формат : RLE
Формат/Информация : Run-length encoding
Режим смешивания : DVD-Video
Продолжительность : 19 м.
Задержка видео : 600 мс.
Текст #11
Идентификатор : 189 (0xBD)-42 (0x2A)
Формат : RLE
Формат/Информация : Run-length encoding
Режим смешивания : DVD-Video
Продолжительность : 19 м.
Задержка видео : 600 мс.
Текст #12
Идентификатор : 189 (0xBD)-43 (0x2B)
Формат : RLE
Формат/Информация : Run-length encoding
Режим смешивания : DVD-Video
Продолжительность : 19 м.
Задержка видео : 600 мс.
Текст #13
Идентификатор : 189 (0xBD)-44 (0x2C)
Формат : RLE
Формат/Информация : Run-length encoding
Режим смешивания : DVD-Video
Продолжительность : 19 м.
Задержка видео : 600 мс.
Текст #14
Идентификатор : 189 (0xBD)-45 (0x2D)
Формат : RLE
Формат/Информация : Run-length encoding
Режим смешивания : DVD-Video
Задержка видео : 600 мс.
Текст #15
Идентификатор : 189 (0xBD)-46 (0x2E)
Формат : RLE
Формат/Информация : Run-length encoding
Режим смешивания : DVD-Video
Продолжительность : 19 м.
Задержка видео : 600 мс.
Текст #16
Идентификатор : 189 (0xBD)-48 (0x30)
Формат : RLE
Формат/Информация : Run-length encoding
Режим смешивания : DVD-Video
Текст #17
Идентификатор : 189 (0xBD)-49 (0x31)
Формат : RLE
Формат/Информация : Run-length encoding
Режим смешивания : DVD-Video

Скриншоты меню

Скриншоты фильма


-
-Раздача от группы:

_________________
Показать сообщения:    

Текущее время: Сегодня 06:47

Часовой пояс: GMT



Вы не можете начинать темы
Вы не можете отвечать на сообщения
Вы не можете редактировать свои сообщения
Вы не можете удалять свои сообщения
Вы не можете голосовать в опросах
Вы не можете прикреплять файлы к сообщениям
Вы не можете скачивать файлы