Ивановский Торрент трекер
Яндекс.Погода
Статистика раздачи
Размер:  7.78 GB   |    Зарегистрирован:  4 дня   |    Скачан:  0 раз
Сидов:  1  [  0 KB/s  ]   Подробная статистика пиров
 
     
 
 
 

[Цитировать]
HUNTER

Дачный романс / (2 серии из 2)
Страна: Россия
Жанр: Мелодрама, комедия
Год выпуска: 2014
Продолжительность: 02:02:35
Режиссёр: Вадим Дубровицкий
В ролях: Константин Юшкевич, Карина Разумовская, Анна Дубровская, Владимир Капустин
Описание: Борис отправляется к бывшей жене на дачу, чтобы забрать свои вещи. Ситуация осложнена тем, что на даче помимо бывшей жены проживает и ее новый муж. Чтобы не чувствовать себя неловко, Борис по дороге за город знакомится с симпатичной девушкой и предлагает ей сыграть роль его любимой женщины. Жена пребывает в шоке от такой "наглости" бывшего мужа, ее обуревает ревность. Оказывается, бывшие супруги еще что-то чувствуют по отношению друг к другу...
Доп. информация:
Автор релиза -
Источник - HDTV 1080i TS - моя запись с канала Первый HD от 05.02.2017
В оригинальном потоке звук псевдо-объёмный AC3 5.1 384 kbps - четыре канала из шести оказались пустыми, поэтому аудио-дорожка была перекодирована в AC3 2.0 384 kbps с использованием eac3to и Sony Vegas
Сэмпл: https://yadi.sk/i/GGuwb5Yv3Cx7Pm
Качество видео: HDTV 1080i
Формат видео: MKV
Видео: MPEG-4, 1920x1080, 25.000 fps, 8695 kbps
Аудио: Русский AC3, 48000 Гц, 2ch, 384 kbps

MediaInfo

Общее
Уникальный идентификатор : 177506146550724432305058149529127335013 (0x858A70B7346BBC88A0D32EF4ABA1B465)
Полное имя : D:\Дачный.романс.2014.HDTV.1080i-ylnian.mkv
Формат : Matroska
Версия формата : Version 4 / Version 2
Размер файла : 7,78 Гбайт
Продолжительность : 2 ч. 2 м.
Общий поток : 9083 Кбит/сек
Название фильма : Дачный.романс.2014.HDTV.1080i-ylnian
Дата кодирования : UTC 2017-02-05 09:53:36
Программа кодирования : mkvmerge v9.8.0 ('Kuglblids') 64bit
Библиотека кодирования : libebml v1.3.4 + libmatroska v1.4.5
Видео
Идентификатор : 1
Формат : AVC
Формат/Информация : Advanced Video Codec
Профиль формата : High@L4
Параметр CABAC формата : Да
Параметр ReFrames формата : 4 кадра
Идентификатор кодека : V_MPEG4/ISO/AVC
Продолжительность : 2 ч. 2 м.
Битрейт : 8695 Кбит/сек
Ширина : 1920 пикселей
Высота : 1080 пикселей
Соотношение сторон : 16:9
Режим частоты кадров : Переменный
Частота кадров : 50,000 кадров/сек
Частота кадров в оригинале : 25,000 кадров/сек
Цветовое пространство : YUV
Субдискретизация насыщенности : 4:2:0
Битовая глубина : 8 бит
Тип развёртки : Чересстрочная
Метод сохранения типа развёртки : Раздельные поля
Порядок развёртки : Верхнее поле первое
Бит/(Пиксели*Кадры) : 0.084
Размер потока : 7,45 Гбайт (96%)
Заголовок : Дачный.романс.2014.HDTV.1080i-ylnian
Язык : Russian
Default : Да
Forced : Да
Цветовой диапазон : Limited
Основные цвета : BT.709
Характеристики трансфера : BT.709
Коэффициенты матрицы : BT.709
Аудио
Идентификатор : 2
Формат : AC-3
Формат/Информация : Audio Coding 3
Расширение режима : CM (complete main)
Параметр Endianness формата : Big
Идентификатор кодека : A_AC3
Продолжительность : 2 ч. 2 м.
Вид битрейта : Постоянный
Битрейт : 384 Кбит/сек
Каналы : 2 канала
Расположение каналов : Front: L R
Частота : 48,0 КГц
Частота кадров : 31,250 кадров/сек (1536 spf)
Метод сжатия : С потерями
Размер потока : 337 Мбайт (4%)
Язык : Russian
Default : Да
Forced : Да

Скриншот c названием фильма

[iv-torrents.ru].t75589.torrent
Торрент: Зарегистрирован [ 2018-01-15 20:51 ] · FE214D78AE388F2DB1061E291E57F9E5C099985A

Скачать .torrent

Скачать

39 KB

Статус: проверено
Скачан: 0 раз
Размер: 7.78 GB
terms.php


Показать сообщения:    

Текущее время: 20-Янв 05:22

Часовой пояс: UTC ± 0


Вы не можете начинать темы
Вы не можете отвечать на сообщения
Вы не можете редактировать свои сообщения
Вы не можете удалять свои сообщения
Вы не можете голосовать в опросах
Вы не можете прикреплять файлы к сообщениям
Вы можете скачивать файлы

!ВНИМАНИЕ!
Сайт не предоставляет электронные версии произведений, а занимается лишь коллекционированием и каталогизацией ссылок, присылаемых и публикуемых на форуме нашими читателями. Если вы являетесь правообладателем какого-либо представленного материала и не желаете, чтобы ссылка на него находилась в нашем каталоге, свяжитесь с нами, и мы незамедлительно удалим ее. Файлы для обмена на трекере предоставлены пользователями сайта, и администрация не несет ответственности за их содержание. Просьба не заливать файлы, защищенные авторскими правами, а также файлы нелегального содержания!