Ивановский Торрент трекер
Яндекс.Погода
 

[Цитировать]
HUNTER

Катастрофы недели Год выпуска: 1995
Страна: Россия
Жанр: документальный, интервью
Продолжительность: 00:23:48Телеканал: ТВ-6 МоскваВедущий: Андрей ПучковОписание: Выпуск от 15 июля 1995 года. Темы выпуска: автокатастрофы во Франции, наводнения в Евразии, поисковые работы на месте обрушения корейского универмага «Сампунг», рубрика «Вы – очевидец» и др.Доп. информация: Огромная благодарность Nekontroliruemij_devil за исходник!Качество: VHSRip
Формат: MPG
Видео кодек: MPEG2
Аудио кодек: AC3
Видео: MPEG2 Video 720x576 (4:3) 25fps 7943kbps
Аудио: Dolby AC3 48000Hz stereo 192kbps

О программе

В первый раз программа «Катастрофы недели» вышла в эфир на канале «ТВ-6 Москва» 1-го октября 1994 года. Её ведущим был Иван Усачёв (ныне программа «Вы – очевидец»). Автор идеи и творческий вдохновитель проекта – Иван Демидов. В июне 1995 года ведущим программы становится Андрей Пучков. Главный принцип проекта определен самим названием – это еженедельный дайджест крупных катастроф, аварий и стихийных бедствий, которые произошли на нашей планете за 7 дней или имели место в прошлом. Главным источником информации для программы служат ежедневные выпуски новостей, распространяемые по миру телеинформагентствами (в основном APTN). На втором месте сюжеты и информация из российских регионов (активное использование партнёрской сети ТВ-6). На третьем, сюжеты предоставляемые Министерством по чрезвычайным ситуациям (МЧС РФ). И, конечно, собственные съёмки программы. В основном это интервью со специалистами, оперативные съёмки крупных катастроф, произошедших в Москве и ближнем Подмосковье и видеоотчёты о командировках. Корреспондентам программы пришлось объехать почти все крупные города России: Санкт-Петербург, Новосибирск, Омск, Иркутск, Хабаровск, Владивосток и многие другие. По счастью, не во все эти города «Катастрофы» приезжали по следам катастроф. Большие учения МЧС, рассказ о мерах по предотвращению бед и просто хорошо налаженная служба оперативного реагирования на чрезвычайные ситуации не раз становились темами больших репортажей в программе.
Как показали многочисленные исследования, проект является совершенно уникальным. Ни где, ни в одной стране мира нет точно такой же программы, которая вмещала бы в себя информацию о всех катастрофах Земли. Есть похожие программы, но в массе своей они сделаны по американскому принципу: одна катастрофа – одна тема, с опросом очевидцев, мнениями многочисленных экспертов и с постановочной или компьютерной реконструкцией хода событий. «Катастрофы недели» за несколько десятков минут эфирного времени успевают рассказать минимум о 20-ти происшествиях.
Таким образом, за несколько лет работы программа смогла осветить почти тысячу происшествий и бед международного масштаба. Программа не ограничивается только сухой констатацией фактов по принципу «что?», «где?» и «когда?». Почти в каждом материале делается попытка ответить на главный вопрос – «почему?». Особенно, когда крупная катастрофа происходит на территории нашей страны, хотя это очень сложная задача. В первые несколько дней после большой беды почти все средства массовой информации пытаются перещеголять друг друга в количестве версий, очень часто выдвигая самые абсурдные. Творческий коллектив «Катастроф недели» никогда не гонялся за сенсацией, не пытался запутать зрителя огромным количеством возможных вариантов развития событий. Главным принципом всегда была попытка максимально точно отразить реальный ход событий и не торопиться с выводами. После печально памятного всем пожара в студенческом общежитии МГУ (зима 2000-го года) в программу обратились следователи московской прокуратуры и попросили предоставить в их распоряжение сюжет «Катастроф недели» об этом случае. По их мнению, только этот видеоматериал, поданный в сжатой, лаконичной и в то же время объективной форме, давал представление о том, что там случилось на самом деле. Лучшей характеристики качеству работы программы придумать просто невозможно.

Скриншоты


Подробные технические данные

GeneralComplete name : 1995-07-15 Катастрофы недели [ТВ-6 Москва].mpgFormat : MPEG-PSFile size : 1.38 GiBDuration : 23 min 48 sOverall bit rate mode : VariableOverall bit rate : 8 300 kb/sWriting library : (dvd5: Oct 27 2015)VideoID : 224 (0xE0)Format : MPEG VideoFormat version : Version 2Format profile : Main@MainFormat settings, BVOP : NoFormat settings, Matrix : DefaultFormat settings, GOP : VariableFormat settings, picture struc : FrameDuration : 23 min 48 sBit rate mode : VariableBit rate : 7 943 kb/sMaximum bit rate : 8 200 kb/sWidth : 720 pixelsHeight : 576 pixelsDisplay aspect ratio : 4:3Frame rate : 25.000 FPSStandard : PALColor space : YUVChroma subsampling : 4:2:0Bit depth : 8 bitsScan type : InterlacedScan order : Top Field FirstCompression mode : LossyBits/(Pixel*Frame) : 0.766Time code of first frame : 00:00:00:00Time code source : Group of pictures headerGOP, Open/Closed : ClosedStream size : 1.32 GiB (96%)Writing library : (dvd5: Oct 27 2015)AudioID : 189 (0xBD)-128 (0x80)Format : AC-3Format/Info : Audio Coding 3Mode extension : CM (complete main)Format settings, Endianness : BigMuxing mode : DVD-VideoDuration : 23 min 48 sBit rate mode : ConstantBit rate : 192 kb/sChannel(s) : 2 channelsChannel positions : Front: L RSampling rate : 48.0 kHzFrame rate : 31.250 FPS (1536 spf)Bit depth : 16 bitsCompression mode : LossyStream size : 32.7 MiB (2%)
Показать сообщения:    

Текущее время: 23-Окт 23:31

Часовой пояс: UTC - 1


Вы не можете начинать темы
Вы не можете отвечать на сообщения
Вы не можете редактировать свои сообщения
Вы не можете удалять свои сообщения
Вы не можете голосовать в опросах
Вы не можете прикреплять файлы к сообщениям
Вы не можете скачивать файлы

!ВНИМАНИЕ!
Сайт не предоставляет электронные версии произведений, а занимается лишь коллекционированием и каталогизацией ссылок, присылаемых и публикуемых на форуме нашими читателями. Если вы являетесь правообладателем какого-либо представленного материала и не желаете, чтобы ссылка на него находилась в нашем каталоге, свяжитесь с нами, и мы незамедлительно удалим ее. Файлы для обмена на трекере предоставлены пользователями сайта, и администрация не несет ответственности за их содержание. Просьба не заливать файлы, защищенные авторскими правами, а также файлы нелегального содержания!