Ивановский Торрент трекер
Яндекс.Погода
 

[Цитировать]
HUNTER

Карточки Домана - Учимся читать с рождения
5 DVD - от компании "Умница"!---
Год выпуска: 2010
Страна: Россия
Тематика: Обучающее видео для детей
Тип раздаваемого материала: Видеоурок
Методика: Гленна Домана
Производитель: Лаборатория Антона Маниченко
Продолжительность: 05:24:00
Язык: русский
Возраст: для детей от 6 месяцев--Описание:
Научиться читать в год легче, чем в два, а в два легче, чем в три!
Компания «Умница» представляет комплект «Карточки Домана», созданный специально для малышей в возрасте от полугода. Данный комплект поможет развить речь, воображение, мышление и память малыша, а также позволит проводить занятия в увлекательной форме.
Видео обучает младенцев чтению. Принцип Домана такой - ребенок фотографически запоминает слова, до тех пор, пока его не озаряет, что слова состоят из букв. С этих пор он может прочитать любое слово. Если ребенок учится читать по этому методу, он начинает читать раньше, чем говорить. Это не фантастика, и уже даже не редкость. Видеть детей, читающих в 1-2 года, можно тут--В комплекте «Карточки Домана» 5 интересных DVD-дисков. Они содержат весёлые занятия для обучения чтению и развития речи – заниматься с ними будет легко и весело. При этом обучение не займет много времени, – достаточно показывать крохе пятиминутные ролики несколько раз в день.--Просто! Показываем малышу ролики по 5 минут несколько раз в день!
Эффективно! Малыш самостоятельно читает свою первую книжку!
Весело! Яркая анимация и весёлые песенки поднимут настроение Вам и Вашему малышу!
--
Качество: DVDRip, Формат: AVI, Видео кодек: XviD, Аудио кодек: MP3
Видео : XviD, 720 x 528, 4/3, 25.000 fps, остальное - указано отдельно
Аудио 1: MPEG-1 Audio layer 3, 128 Kbps, CBR, 48.0 KHz, 2 ch. RUS-- --

Скриншоты видео

Инструкция для родителей - 04:21
Видео: XviD, 720 x 528, 4/3, 1 447 Kbps, 25.000 fps, 0.15 b/px
-Диск 1 - 53:10
Видео: XviD, 720 x 528, 4/3, 1 821 Kbps, 25.000 fps, 0.19 b/px
-Диск 2 - 59:02
Видео: XviD, 720 x 528, 4/3, 1 539 Kbps, 25.000 fps, 0.162 b/px
-Диск 3 - 53:08
Видео: XviD, 720 x 528, 4/3, 1 699 Kbps, 25.000 fps, 0.18 b/px
-Диск 4 - 01:18:03
Видео: XviD, 720 x 528, 4/3, 1 194 Kbps, 25.000 fps, 0.126 b/px
-Диск 5 - 01:16:16
Видео: XviD, 720 x 528, 4/3, 1 225 Kbps, 25.000 fps, 0.13 b/px

Содержание дисков

-Диск 1. Первые слова. (50 слов)
Темы: Есть и пить | Тяжёлый день | Родные | Ещё, ещё, ещё | Фрукты | Части тела | То, что умею | Антонимы
Диск 2. Повседневные слова. (50 слов)
Темы: Мои вещи | Купание | Прогулка | То, что люблю | Спорт | Транспорт | Погода | Цвета
Диск 3. Животные. (50 слов)
Темы: Домашние | Дикие | Африканские | Насекомые | Деревенские животные | Дети животных | Морские животные | Птицы
Диск 4. Словосочетания. Часть 1. (300 словосочетаний)
Диск 5. Словосочетания. Часть 2. (300 словосочетаний)
Вы можете просмотреть весь диск сразу, все уроки по разделам или чередовать их между собой.
Ребёнок слышит слово и одновременно видит, что оно обозначает. Это позволяет малышу эффективнее усваивать пройденное и быстрее выйти в осмысленное чтение. Благодаря анимации со словообразовательными играми, ребёнок легко выходит в понятие буквы. Вот он, последний шаг в осмыслении правил буквосложения!

Дополнительно...

Презентация
Меню - скриншоты DVD

-Карточки Домана на DVD это:
- обучение чтению в игре;
- развитие интеллекта, внимания, памяти, речи;
- эффективный способ быстро выйти в понятие буквы;
- экономия времени для родителей.
Видеокурс обучения чтению «Карточки Домана на DVD» включает 5 DVD-дисков, которые содержат 150 наиболее часто употребляемых слов и 600 словосочетаний с этими словами. На каждом диске от 8 до 12 разделов, в каждом из которых от 6 до 8 слов, словосочетаний.
В каждом занятии:
Динамичный показ слов, словосочетаний.
Видеоролики с детьми, яркие фото, картинки, в которых раскрывается значение слов и словосочетаний.
Анимация со словообразовательными играми.
Весёлые песенки.
Показ слов, словосочетаний на разном фоне, написанным разным шрифтом.
В основе видеокурса – знаменитый метод обучения чтению целыми словами Гленна Домана.-Метод Домана — серия восстанавливающих (методика Домана-Делакато, «паттернинг») и обучающих методик для детей с задержками развития и для детей с полноценным развитием, разработанных Гленном Доманом и основанным им Институтом Развития Человеческого Потенциала.-Будучи ученым-нейрофизиологом, Гленн Доман открыл и доказал важнейший закон: мозг растет и развивается лишь в том случае, если он работает. И чем интенсивнее будет нагрузка на мозг малыша в первые годы его жизни, тем лучше разовьется его интеллект.
Не менее важно для нас и другое открытие Домана: мозг ребенка с самого рождения запрограммирован на обучение, и пока идет его активный рост (после трех лет он существенно замедляется, а после шести практически прекращается), ребенку не требуется никакой дополнительной мотивации для обучения. Если грамотно организовать процесс, любой ребенок с наслаждением будет учиться всему, что вы ему предложите. И делать он это будет с такой легкостью, которая и не снилась детям школьного возраста.-Карточки Домана - это прекрасная возможность познакомить ребенка с окружающим миром, увеличить его словарный запас. Постарайтесь подстроиться под ритм, характер и темперамент вашего ребенка - если ему необходимо длительная задержка, остановитесь, рассмотрите карточки, или наоборот показывайте их быстро. Главное в любых занятиях - это удовольствие и желание ребенка.

Отчет MI DVD

Код: copyText_writeLink('this.parentNode.parentNode.nextSibling.nextSibling'); Complete name : \Учимся читать с рождения\1 VIDEO_TS_\VTS_03_1.VOB
Format : MPEG-PS
File size : 1 024 MiB
Duration : 25mn 36s
Overall bit rate : 5 591 Kbps
Video
ID : 224 (0xE0)
Format : MPEG Video
Format version : Version 2
Format profile : Main@Main
Format settings, BVOP : Yes
Format settings, Matrix : Default
Format settings, GOP : M=3, N=12
Duration : 25mn 36s
Bit rate mode : Variable
Bit rate : 3 944 Kbps
Nominal bit rate : 7 000 Kbps
Width : 720 pixels
Height : 576 pixels
Display aspect ratio : 4:3
Frame rate : 25.000 fps
Standard : PAL
Color space : YUV
Chroma subsampling : 4:2:0
Bit depth : 8 bits
Scan type : Progressive
Bits/(Pixel*Frame) : 0.380
Stream size : 722 MiB (71%)
Audio
ID : 160 (0xA0)
Format : PCM
Format settings, Endianness : Big
Format settings, Sign : Signed
Muxing mode : DVD-Video
Duration : 25mn 35s
Bit rate mode : Constant
Bit rate : 1 536 Kbps
Channel(s) : 2 channels
Channel positions : Front: L R
Sampling rate : 48.0 KHz
Bit depth : 16 bits
Video delay : -80ms
Stream size : 281 MiB (27%)
Menu
--

Пожалуйста, оставайтесь на раздаче как можно дольше--
0 человек читают эту тему: 0 пользователей, 0 скрытых пользователей, 0 гостей

Показать сообщения:    

Текущее время: 23-Авг 16:28

Часовой пояс: UTC - 1


Вы не можете начинать темы
Вы не можете отвечать на сообщения
Вы не можете редактировать свои сообщения
Вы не можете удалять свои сообщения
Вы не можете голосовать в опросах
Вы не можете прикреплять файлы к сообщениям
Вы не можете скачивать файлы

!ВНИМАНИЕ!
Сайт не предоставляет электронные версии произведений, а занимается лишь коллекционированием и каталогизацией ссылок, присылаемых и публикуемых на форуме нашими читателями. Если вы являетесь правообладателем какого-либо представленного материала и не желаете, чтобы ссылка на него находилась в нашем каталоге, свяжитесь с нами, и мы незамедлительно удалим ее. Файлы для обмена на трекере предоставлены пользователями сайта, и администрация не несет ответственности за их содержание. Просьба не заливать файлы, защищенные авторскими правами, а также файлы нелегального содержания!