Ивановский Торрент трекер
Яндекс.Погода
 

[Цитировать]
mihis

Карпов32 СерииГод выпуска: 2012
Страна: Россия, Телекомпания "Dixi Медиа", НТВ
Жанр: Детектив, криминал, драма
Продолжительность: 32 х ~ 00:51:00
Перевод: Не требуется Лицензия
Субтитры: Нет
Режиссер: Игорь Ромащенко, Иван Щёголев, Гюзель Киреева
В ролях: Владислав Котлярский, Степан Рожнов, Юлия Майборода, Максим Щеголев, Николай Козак, Анна Михайловская, Дмитрий Блажко, Дмитрий Мазуров, Сергей Карленков, Константин Столяров, Михаил Скачков, Юлия Селиванова, Артем Барсуков, Александр Сергеев, Виктор Мютников, Константин Шелягин, Виктория Тарасова, Владислав Шкляев, Григорий Анашкин, Юлия Гусак, Арсений Перов, Андрей Сорока, Юрий Пономаренко, Андрей Перунов, Федор Румянцев, Анна Зверева, Андрей Березкин, Елена Калабина, Сергей Ланбамин, Ульяна Ворожейкина, Алексей Захаров, Максим Громов, Александр Шелудько, Александр Синюков, Анна Ровинская, Михаил Шкамаридин, Евгений Сафронов
Описание: Телесериал «Карпов» расскажет о дальнейшей судьбе бывшего подполковника милиции Стаса Карпова. Освободившись после принудительного лечения, Карпов оказывается «у разбитого корыта». Не осталось ничего из того, чего он так долго добивался: ни денег, ни положения, ни власти. Бывшему менту выписан волчий билет, в полицию он не попадет даже на самую мелкую должность. Пытаясь хоть как-то прокормить себя, Карпов устраивается работать охранником на склад. Он смотрит на мир трезвыми глазами, не задурманенными властью. Однажды он видит объявление о вознаграждении за розыск преступника и понимает, что помнит того по старым делам, и может разыскать его...

Качество: DVDRip
Формат: AVI
Видео кодек: XviD
Аудио кодек: AC3
Видео: XviD, ~ 1440 Кбит/с, 720x400
Аудио: AC3, 6 ch, 448 Кбит/с

Название серий

1 серия: Здесь темно и тихо
2 серия: Свидетель
3 серия: Со дна
4 серия: Куш
5 серия: Проверка на прочность
6 серия: Огонь
7 серия: Часть той силы
8 серия: Сети
9 серия: Хобот
10 серия: Крючок
11 серия: Никому не нужный псих
12 серия: Сон
13 серия: Гости из прошлого
14 серия: Переворот
15 серия: Схватка
16 серия: Для друга
17 серия: Слишком живой для мертвеца
18 серия: Нежить
19 серия: Чужая земля
20 серия: Признание
21 серия: Слишком много вопросов
22 серия: Киллер
23 серия: Входной билет
24 серия: Грязные игры
25 серия: Группа смерти
26 серия: Колпак
27 серия: Бойня
28 серия: Снежная королева
29 серия: Другие
30 серия: Звериная стая
31 серия: Зомби
32 серия: Тьма или Света

Инфо-файл

Complete name : D:\Karpov.XviD.DVDRip.Generalfilm\01.avi
Format : AVI
Format/Info : Audio Video Interleave
File size : 699 MiB
Duration : 51mn 29s
Overall bit rate : 1 899 Kbps
Writing application : Lavf52.33.0
Video
ID : 0
Format : MPEG-4 Visual
Format profile : Simple@L3
Format settings, BVOP : No
Format settings, QPel : No
Format settings, GMC : No warppoints
Format settings, Matrix : Default (H.263)
Codec ID : XVID
Codec ID/Hint : XviD
Duration : 51mn 29s
Bit rate : 1 440 Kbps
Width : 720 pixels
Height : 400 pixels
Display aspect ratio : 16:9
Frame rate : 25.000 fps
Color space : YUV
Chroma subsampling : 4:2:0
Bit depth : 8 bits
Scan type : Progressive
Compression mode : Lossy
Bits/(Pixel*Frame) : 0.200
Stream size : 530 MiB (76%)
Writing library : XviD 1.2.1 (UTC 2008-12-04)
Audio
ID : 1
Format : AC-3
Format/Info : Audio Coding 3
Mode extension : CM (complete main)
Format settings, Endianness : Big
Codec ID : 2000
Duration : 51mn 28s
Bit rate mode : Constant
Bit rate : 448 Kbps
Channel(s) : 6 channels
Channel positions : Front: L C R, Side: L R, LFE
Sampling rate : 48.0 KHz
Bit depth : 16 bits
Compression mode : Lossy
Stream size : 165 MiB (24%)
Alignment : Aligned on interleaves
Interleave, duration : 32 ms (0.80 video frame)
Источник

[Цитировать]
Wittmann

Хороший сериал.достойная игра главного героя
Показать сообщения:    

Текущее время: 24-Окт 00:55

Часовой пояс: UTC - 1


Вы не можете начинать темы
Вы не можете отвечать на сообщения
Вы не можете редактировать свои сообщения
Вы не можете удалять свои сообщения
Вы не можете голосовать в опросах
Вы не можете прикреплять файлы к сообщениям
Вы не можете скачивать файлы

!ВНИМАНИЕ!
Сайт не предоставляет электронные версии произведений, а занимается лишь коллекционированием и каталогизацией ссылок, присылаемых и публикуемых на форуме нашими читателями. Если вы являетесь правообладателем какого-либо представленного материала и не желаете, чтобы ссылка на него находилась в нашем каталоге, свяжитесь с нами, и мы незамедлительно удалим ее. Файлы для обмена на трекере предоставлены пользователями сайта, и администрация не несет ответственности за их содержание. Просьба не заливать файлы, защищенные авторскими правами, а также файлы нелегального содержания!