Важное объявление!
У Нас Все раздачи мультитрекерные, при нуле пиров в релизах, можете смело вставать на закачку!
Статистика раздачи
Размер:     |    Зарегистрирован:     |    Скачан:     |   
Нет
 
     
 
 
Автор Сообщение

HUNTER

Стаж:
5 лет
Сообщений:
68065

Репутация: 101

[+] [-]
Вне форума [Профиль] [ЛС]

Карнавал душ / Carnival of Souls
Страна: США
Жанр: ужасы
Год выпуска: 1962
Продолжительность: 01:18:14
Перевод: Профессиональный (двухголосый закадровый)
Cубтитры: русские, английские
Оригинальная аудиодорожка: английский-Режиссер: Херк Харви / Herk Harvey
В ролях: Кендес Хиллигос, Фрэнсис Фейст, Сидни Бергер, Арт Эллисон, Стэн Левитт, Том Макгиннис, Форбс Калдуэлл, Дэн Палмквист, Билл де Джарнетт, Стив Бузер, Памела Баллард, Лэрри Сниджес, Кэри Конбой, Карен Пайлс, Т.К. Адамс, Шэрон Сковилл, Мэри Энн Хэррис, Питер Шницлер, Билл Соллнер
Описание: После автомобильной аварии на мосту выжила только юная Мэри Генри. Пытаясь забыть неприятные воспоминания, она переезжает в маленький городок и хочет начать новую жизнь в качестве органиста местной церкви. Вскоре с ней начинают происходить странные вещи: нормальные люди в городе, кажется, не видят ее, а сама она перестает слышать звуки...
IMDb || КиноПоиск-Тип релиза: BDRemux 1080p
Контейнер: MKV
Видео: MPEG-4 AVC Video, 1920x1080 at 23.976 fps, 32327 kbps
Аудио#1: Русский: 48 kHz, AC3, 2.0 ch, 192 kbps
Аудио#2: English: 48 kHz, FLAC, 1.0 ch, 603 kbps
Аудио#3: English: 48 kHz, AC3, 1.0 ch, 192 kbps |комментарии режиссера и сценариста фильма
Формат субтитров: softsub (SRT)
Сэмпл

MediaInfo

General
Unique ID : 249088301453849360501260755410520149486 (0xBB64A96F700453F5934999C872048DEE)
Complete name : F:\Карнавал душ\Carnival of Souls.1962.Criterion.BDRemux.rutracker.mkv
Format : Matroska
Format version : Version 2
File size : 18.2 GiB
Duration : 1h 18mn
Overall bit rate mode : Variable
Overall bit rate : 33.2 Mbps
Movie name : Release for RuTracker
Writing application : mkvmerge v5.0.1 ('Es ist Sommer') built on Nov 6 2011 16:23:40
Writing library : libebml v1.2.2 + libmatroska v1.3.0
Video
ID : 1
Format : AVC
Format/Info : Advanced Video Codec
Format profile : High@L4.1
Format settings, CABAC : Yes
Format settings, ReFrames : 4 frames
Codec ID : V_MPEG4/ISO/AVC
Duration : 1h 18mn
Bit rate mode : Variable
Maximum bit rate : 37.0 Mbps
Width : 1 920 pixels
Height : 1 080 pixels
Display aspect ratio : 16:9
Frame rate mode : Constant
Frame rate : 23.976 fps
Color space : YUV
Chroma subsampling : 4:2:0
Bit depth : 8 bits
Scan type : Progressive
Title : Carnival of Souls.1962.Criterion.BDRemux.rutracker
Language : English
Default : Yes
Forced : No
Audio #1
ID : 2
Format : AC-3
Format/Info : Audio Coding 3
Mode extension : CM (complete main)
Format settings, Endianness : Big
Codec ID : A_AC3
Duration : 1h 18mn
Bit rate mode : Constant
Bit rate : 192 Kbps
Channel(s) : 2 channels
Channel positions : Front: L R
Sampling rate : 48.0 KHz
Bit depth : 16 bits
Compression mode : Lossy
Stream size : 107 MiB (1%)
Language : Russian
Default : Yes
Forced : No
Audio #2
ID : 3
Format : FLAC
Format/Info : Free Lossless Audio Codec
Codec ID : A_FLAC
Duration : 1h 18mn
Bit rate mode : Variable
Channel(s) : 1 channel
Sampling rate : 48.0 KHz
Bit depth : 24 bits
Writing library : libFLAC 1.2.1 (UTC 2007-09-17)
Language : English
Default : No
Forced : No
Audio #3
ID : 4
Format : AC-3
Format/Info : Audio Coding 3
Mode extension : CM (complete main)
Format settings, Endianness : Big
Codec ID : A_AC3
Duration : 1h 18mn
Bit rate mode : Constant
Bit rate : 192 Kbps
Channel(s) : 1 channel
Channel positions : Front: C
Sampling rate : 48.0 KHz
Bit depth : 16 bits
Compression mode : Lossy
Stream size : 107 MiB (1%)
Title : комментарии режиссера и сценариста фильма
Language : English
Default : No
Forced : No
Text #1
ID : 5
Format : UTF-8
Codec ID : S_TEXT/UTF8
Codec ID/Info : UTF-8 Plain Text
Language : Russian
Default : No
Forced : No
Text #2
ID : 6
Format : UTF-8
Codec ID : S_TEXT/UTF8
Codec ID/Info : UTF-8 Plain Text
Language : English
Default : No
Forced : No
Menu
00:00:00.000 : :Drag race
00:05:56.105 : :Never coming back
00:10:58.449 : :Drive by night
00:14:39.086 : :Stirring the soul
00:19:50.397 : :The pavilion
00:22:25.093 : :Lost night
00:29:23.094 : :Morning coffee
00:34:10.214 : :Isolation
00:39:08.262 : :"No place in the world"
00:43:01.328 : :Return to the pavilion
00:48:44.379 : :Awakening the souls
00:53:24.492 : :Roadhouse
01:00:38.885 : :Departure
01:06:27.900 : :Eastbound bus
01:10:41.403 : :Final destination

Скриншоты


_________________
Показать сообщения:    

Текущее время: Сегодня 15:04

Часовой пояс: GMT



Вы не можете начинать темы
Вы не можете отвечать на сообщения
Вы не можете редактировать свои сообщения
Вы не можете удалять свои сообщения
Вы не можете голосовать в опросах
Вы не можете прикреплять файлы к сообщениям
Вы не можете скачивать файлы