Ивановский Торрент трекер
Яндекс.Погода
 

[Цитировать]
HUNTER

Кармен Джонс / Carmen Jones
Страна: США
Жанр: Драма
Год выпуска: 1954
Продолжительность: 01:44:44-Перевод: Профессиональный (двухголосый закадровый)
Cубтитры: русские(на непереведенный эпизод), английские
Оригинальная аудиодорожка: английский-Режиссер: Отто Премингер /Otto Preminger-В ролях: Гарри Белафонте, Дороти Дэндридж, Перл Бэйли, Ольга Джеймс, Джо Адамс, Брок Питерс, Дайахэнн Кэрролл-Описание:
Вторая мировая война, на военной базе расположенной в южных широтах расположен учебный лагерь будущих летчиков. Жгучая афро-американка Кармен Джоунс (Дэндридж), работает на парашютной фабрике в Дикси и желанна многими крепкими парнями в военной форме, но она любит одного красавчика Джо (Белафонте). К великому сожалению Кармен ее любимый Джо обручен с милой девушкой Синди Лу и свадьба не за горами. Волею судьбы Кармен и Джо предстоит бурный роман, исход которого печален…
Современная экспериментальная версия оперы Жоржа Бизе "Кармен" режиссера Отто Премингера удивительно удачно смешавшего комедию и трагедиею в блестящих сценах. Великий американский композитор и поэт Оскар Хаммерштайн написал собственное либретто "Кармен", перенеся действие из Испании восемнадцатого века в США двадцатого столетия. Успех картины в США был грандиозен, песни из кинофильма с музыкой Бизе с новыми словами Оскара Хаммерстайна разошлись миллионными тиражами грампластинок и постоянно звучали по радио. Киноверсия оперы Бизе "Кармен" была долгое время хитом на Бродвее.-Сэмпл: Скачать-Тип релиза: BDRip 720p
Контейнер: MKV-Видео: 1280x502 (2.550); 11028 kbps; 23.976 fps; 0.701 bpp
Аудио 1: Russian; AC3; 48.0 KHz; 2ch; 192 Kbps
Аудио 2: English; AC3; 48.0 KHz; 4ch; 640 Kbps

MediaInfo

Format : Matroska
Format version : Version 4 / Version 2
File size : 8.68 GiB
Duration : 1h 44mn
Overall bit rate : 11.9 Mbps
Encoded date : UTC 2014-10-12 16:54:11
Writing application : mkvmerge v7.2.0 ('On Every Street') 64bit built on Sep 13 2014 15:52:10
Writing library : libebml v1.3.0 + libmatroska v1.4.1
_STATISTICS_WRITING_APP : mkvmerge v7.2.0 ('On Every Street') 64bit built on Sep 13 2014 15:52:10
_STATISTICS_WRITING_DATE_UTC : 2014-10-12 16:54:11
_STATISTICS_TAGS : BPS DURATION NUMBER_OF_FRAMES NUMBER_OF_BYTES
DURATION : 00:00:18.875000000
NUMBER_OF_FRAMES : 11
NUMBER_OF_BYTES : 635
Video
ID : 1
Format : AVC
Format/Info : Advanced Video Codec
Format profile : High@L4.1
Format settings, CABAC : Yes
Format settings, ReFrames : 12 frames
Codec ID : V_MPEG4/ISO/AVC
Duration : 1h 44mn
Bit rate : 10.8 Mbps
Width : 1 280 pixels
Height : 502 pixels
Display aspect ratio : 2.550
Frame rate mode : Constant
Frame rate : 23.976 fps
Color space : YUV
Chroma subsampling : 4:2:0
Bit depth : 8 bits
Scan type : Progressive
Bits/(Pixel*Frame) : 0.701
Stream size : 7.90 GiB (91%)
Title : 720p-LolHD
Writing library : x264 core 129 r2245 bc13772
Encoding settings : cabac=1 / ref=12 / deblock=1:-3:-3 / analyse=0x3:0x133 / me=umh / subme=10 / psy=1 / psy_rd=1.10:0.00 / mixed_ref=1 / me_range=24 / chroma_me=1 / trellis=2 / 8x8dct=1 / cqm=0 / deadzone=21,11 / fast_pskip=0 / chroma_qp_offset=-2 / threads=6 / lookahead_threads=1 / sliced_threads=0 / nr=0 / decimate=0 / interlaced=0 / bluray_compat=0 / constrained_intra=0 / bframes=8 / b_pyramid=2 / b_adapt=2 / b_bias=0 / direct=3 / weightb=1 / open_gop=0 / weightp=2 / keyint=250 / keyint_min=23 / scenecut=40 / intra_refresh=0 / rc=crf / mbtree=0 / crf=17.5 / qcomp=0.75 / qpmin=0 / qpmax=69 / qpstep=4 / ip_ratio=1.40 / pb_ratio=1.30 / aq=1:0.70
Language : English
Default : Yes
Forced : No
_STATISTICS_WRITING_APP : mkvmerge v7.2.0 ('On Every Street') 64bit built on Sep 13 2014 15:52:10
_STATISTICS_WRITING_DATE_UTC : 2014-10-12 16:54:11
_STATISTICS_TAGS : BPS DURATION NUMBER_OF_FRAMES NUMBER_OF_BYTES
DURATION : 01:44:44.237000000
NUMBER_OF_FRAMES : 150671
NUMBER_OF_BYTES : 8662995921
Audio #1
ID : 2
Format : AC-3
Format/Info : Audio Coding 3
Mode extension : CM (complete main)
Format settings, Endianness : Big
Codec ID : A_AC3
Duration : 1h 44mn
Bit rate mode : Constant
Bit rate : 192 Kbps
Channel(s) : 2 channels
Channel positions : Front: L R
Sampling rate : 48.0 KHz
Bit depth : 16 bits
Compression mode : Lossy
Stream size : 144 MiB (2%)
Title : MVO
Language : Russian
Default : Yes
Forced : No
Audio #2
ID : 3
Format : AC-3
Format/Info : Audio Coding 3
Mode extension : CM (complete main)
Format settings, Endianness : Big
Codec ID : A_AC3
Duration : 1h 44mn
Bit rate mode : Constant
Bit rate : 640 Kbps
Channel(s) : 4 channels
Channel positions : Front: L C R, Back: C
Sampling rate : 48.0 KHz
Bit depth : 16 bits
Compression mode : Lossy
Stream size : 479 MiB (5%)
Title : ENG-DD4.0
Language : English
Default : No
Forced : No
Text #1
ID : 4
Format : UTF-8
Codec ID : S_TEXT/UTF8
Codec ID/Info : UTF-8 Plain Text
Language : Russian
Default : Yes
Forced : No
Text #2
ID : 5
Format : UTF-8
Codec ID : S_TEXT/UTF8
Codec ID/Info : UTF-8 Plain Text
Language : English
Default : No
Forced : No
Menu
00:00:00.000 : en:00:00:00.000
00:01:38.181 : en:00:01:38.181
00:05:11.311 : en:00:05:11.311
00:11:09.168 : en:00:11:09.168
00:13:37.316 : en:00:13:37.316
00:17:38.349 : en:00:17:38.349
00:19:17.698 : en:00:19:17.698
00:21:54.313 : en:00:21:54.313
00:25:11.051 : en:00:25:11.051
00:26:34.218 : en:00:26:34.218
00:32:21.731 : en:00:32:21.731
00:34:45.208 : en:00:34:45.208
00:40:04.360 : en:00:40:04.360
00:43:58.094 : en:00:43:58.094
00:47:36.020 : en:00:47:36.020
00:52:04.621 : en:00:52:04.621
00:53:08.769 : en:00:53:08.769
00:58:02.437 : en:00:58:02.437
01:01:29.769 : en:01:01:29.769
01:03:31.099 : en:01:03:31.099
01:07:09.776 : en:01:07:09.776
01:12:40.606 : en:01:12:40.606
01:14:38.891 : en:01:14:38.891
01:19:14.166 : en:01:19:14.166
01:23:46.730 : en:01:23:46.730
01:25:39.760 : en:01:25:39.760
01:29:19.354 : en:01:29:19.354
01:33:27.268 : en:01:33:27.268
01:39:56.782 : en:01:39:56.782
01:43:24.448 : en:01:43:24.448

Скриншоты



Показать сообщения:    

Текущее время: 11-Дек 00:39

Часовой пояс: UTC ± 0


Вы не можете начинать темы
Вы не можете отвечать на сообщения
Вы не можете редактировать свои сообщения
Вы не можете удалять свои сообщения
Вы не можете голосовать в опросах
Вы не можете прикреплять файлы к сообщениям
Вы не можете скачивать файлы

!ВНИМАНИЕ!
Сайт не предоставляет электронные версии произведений, а занимается лишь коллекционированием и каталогизацией ссылок, присылаемых и публикуемых на форуме нашими читателями. Если вы являетесь правообладателем какого-либо представленного материала и не желаете, чтобы ссылка на него находилась в нашем каталоге, свяжитесь с нами, и мы незамедлительно удалим ее. Файлы для обмена на трекере предоставлены пользователями сайта, и администрация не несет ответственности за их содержание. Просьба не заливать файлы, защищенные авторскими правами, а также файлы нелегального содержания!