Важное объявление!
У Нас Все раздачи мультитрекерные, при нуле пиров в релизах, можете смело вставать на закачку!
Статистика раздачи
Размер:     |    Зарегистрирован:     |    Скачан:     |   
Нет
 
     
 
 
Автор Сообщение

HUNTER

Стаж:
5 лет
Сообщений:
67945

Репутация: 101

[+] [-]
Вне форума [Профиль] [ЛС]

Карибское золото / Inseln vor dem Wind
Страна: Германия, Австрия
Жанр: приключения
Год выпуска: 2012
Продолжительность: 01:28:36
Перевод: Профессиональный (многоголосый закадровый)
Cубтитры: нет
Режиссер: Дитмар Клейн / Dietmar Klein
В ролях: Мюриэль Баумейстер, Туре Рифенштейн, Карл Фишер, Selma Gonzalez Minaya, Maria Antonia Gonzalez, Aloysius Itoka, Ребекка Лина, МаксФолькерт Мартенс, Уве Роде, Лоуренс Рапп
Описание: Исследуя жизнь испанского дворянина XVI века, историк Клаудия Хардинг узнает, что тот женился на ацтекской принцессе, и находит древние карты и записи, в которых указывается место крушения его корабля в Карибском море. Однако начальник Клаудии, профессор Тешлер, хитростью выманивает у нее результаты исследований, а следовательно, и карты. Разозленная Клаудия нанимает опытного охотника за сокровищами капитана Рика Бертольта, который бороздит моря на своем корабле "Морской пес". Его корабль, выглядящий ржавым корытом, оказывается на удивление прочным, а сам Рик - остроумным и довольно приятным компаньоном

Сэмпл: http://rusfolder.com/42368532
Тип релиза: HDTV 1080i
Контейнер: TS
Видео: AVC/H.264, PAL, 1920х1080 (16:9), 25 fps, 8606 Kbps
Аудио: русский, MP-2, 48000 Hz, 192 Кбит/сек, 2 ch

MediaInfo

Общее
Идентификатор : 1 (0x1)
Полное имя : D:\Карибское золото.ts
Формат : MPEG-TS
Размер файла : 5,73 Гбайт
Продолжительность : 1 ч. 28 м.
Режим общего битрейта : Переменный
Общий поток : 9258 Кбит/сек
Максимальный общий битрейт : 35,5 Мбит/сек
Видео
Идентификатор : 4113 (0x1011)
Идентификатор меню : 1 (0x1)
Формат : AVC
Формат/Информация : Advanced Video Codec
Профиль формата : Main@L4.0
Параметр CABAC формата : Да
Параметр ReFrames формата : 3 кадра
Параметр GOP формата : M=4, N=32
Идентификатор кодека : 27
Продолжительность : 1 ч. 28 м.
Вид битрейта : Переменный
Битрейт : 8606 Кбит/сек
Максимальный битрейт : 40,0 Мбит/сек
Ширина : 1920 пикселей
Высота : 1080 пикселей
Соотношение сторон : 16:9
Частота кадров : 25,000 кадров/сек
Стандарт вещания : Component
Цветовое пространство : YUV
Субдискретизация насыщенности : 4:2:0
Битовая глубина : 8 бит
Тип развёртки : Чересстрочная
Порядок развёртки : Верхнее поле первое
Бит/(Пиксели*Кадры) : 0.166
Размер потока : 5,33 Гбайт (93%)
Основные цвета : BT.709
Характеристики трансфера : BT.709
Коэффициенты матрицы : BT.709
Аудио
Идентификатор : 4352 (0x1100)
Идентификатор меню : 1 (0x1)
Формат : MPEG Audio
Версия формата : Version 1
Профиль формата : Layer 2
Идентификатор кодека : 4
Продолжительность : 1 ч. 28 м.
Вид битрейта : Постоянный
Битрейт : 192 Кбит/сек
Каналы : 2 канала
Частота : 48,0 КГц
Метод сжатия : С потерями
Размер потока : 122 Мбайт (2%)
Язык : Russian

Скриншот с названием фильма

Скриншоты


_________________
Показать сообщения:    

Текущее время: Сегодня 02:43

Часовой пояс: GMT



Вы не можете начинать темы
Вы не можете отвечать на сообщения
Вы не можете редактировать свои сообщения
Вы не можете удалять свои сообщения
Вы не можете голосовать в опросах
Вы не можете прикреплять файлы к сообщениям
Вы не можете скачивать файлы