Важное объявление!
У Нас Все раздачи мультитрекерные, при нуле пиров в релизах, можете смело вставать на закачку!
Статистика раздачи
Размер:     |    Зарегистрирован:     |    Скачан:     |   
Нет
 
     
 
 
Автор Сообщение

HUNTER

Стаж:
5 лет
Сообщений:
68415

Репутация: 101

[+] [-]
Вне форума [Профиль] [ЛС]

Капитан Хорнблауэр: Верность / Hornblower: Loyalty
Год выпуска: 2003
Страна: Великобритания
Жанр: Драма, приключения, военный
Продолжительность: 01:36:27
Перевод: Профессиональный многоголосый закадровый
Русские субтитры: нет
Режиссёр: Эндрю Грив
В ролях: Йоан Гриффит, Роберт Линдсэй, Дориан Хили, Майкл Бирн, Роберт Баферст, Дункан Белл, Пол Копли, Шон Джилдер, Саймон Шерлок, Крис Барнс, Джейми Бамбер, Колин МакЛахлан, Роджер Май, Винсент Грасс, Ричард Ламсден, Фрэнк Бойс, Саймон Марки, Оливер Монтгомери, Луана Мота
Описание: После прихода к власти Наполеона между Англией и Францией установилось хрупкое перемирие. Капитан Горацио Хорнблауэр на шлюпе «Отчаянный» отплывает к французскому берегу на секретную встречу с противниками Бонапарта. Однако в условленном месте Хорнблауэра ждёт не корабль союзников, а французский фрегат в полной боевой готовности.СэмплКачество: DVDRip
Формат: AVI
Видео кодек: XviD
Аудио кодек: AC3
Видео: 704x400, 25 fps, XviD MPEG-4 ~819 kbps avg, 0.116 bit/pixel
Аудио: 48 kHz, AC3 Dolby Digital, 2/0 (L,R) ch, ~192 kbps

MI

Общее
Полное имя : D:\Hornblower.1-3.sezon.(8.serij).1996-2003.XViD.DVDRip\Hornblower третий сезон\Hornblower.S03E01.avi
Формат : AVI
Формат/Информация : Audio Video Interleave
Размер файла : 702 Мбайт
Продолжительность : 1 ч. 36 м.
Общий поток : 1018 Кбит/сек
Программа кодирования : VirtualDubMod 1.5.4.1 (build 2178/release)
Библиотека кодирования : VirtualDubMod build 2178/release
Видео
Идентификатор : 0
Формат : MPEG-4 Visual
Профиль формата : Advanced Simple@L5
Параметр BVOP формата : 1
Параметр QPel формата : Нет
Параметр GMC формата : Без точки перехода
Параметр матрицы формата : Выборочная
Идентификатор кодека : XVID
Идентификатор кодека/Подсказка : XviD
Продолжительность : 1 ч. 36 м.
Битрейт : 819 Кбит/сек
Ширина : 704 пикселя
Высота : 400 пикселей
Соотношение сторон : 16:9
Частота кадров : 25,000 кадров/сек
Цветовое пространство : YUV
Субдискретизация насыщенности : 4:2:0
Битовая глубина : 8 бит
Тип развёртки : Прогрессивная
Метод сжатия : С потерями
Бит/(Пиксели*Кадры) : 0.116
Размер потока : 565 Мбайт (80%)
Библиотека кодирования : XviD 64
Аудио
Идентификатор : 1
Формат : AC-3
Формат/Информация : Audio Coding 3
Расширение режима : CM (complete main)
Параметр Endianness формата : Big
Идентификатор кодека : 2000
Продолжительность : 1 ч. 36 м.
Вид битрейта : Постоянный
Битрейт : 192 Кбит/сек
Каналы : 2 канала
Расположение каналов : Front: L R
Частота : 48,0 КГц
Битовая глубина : 16 бит
Метод сжатия : С потерями
Размер потока : 132 Мбайт (19%)
Выравнивание : Разделение по промежуткам
Продолжительность промежутка : 96 мс. (2,40 видеокадра)
Время предзагрузки промежутка : 96 мс.
Язык : Russian

Скриншот c названием фильма

Скриншоты

Капитан Хорнблауэр: Долг / Hornblower: Duty
Год выпуска: 2003
Страна: Великобритания
Жанр: Драма, приключения, военный
Продолжительность: 01:36:01
Перевод: Профессиональный многоголосый закадровый
Русские субтитры: нет
Режиссёр: Эндрю Грив
В ролях: Йоан Гриффит, Роберт Линдсэй, Дориан Хили, Майкл Бирн, Роберт Баферст, Дункан Белл, Пол Копли, Шон Джилдер, Саймон Шерлок, Крис Барнс, Джейми Бамбер, Колин МакЛахлан, Роджер Май, Винсент Грасс, Ричард Ламсден, Фрэнк Бойс, Саймон Марки, Оливер Монтгомери, Луана Мота
Описание: В Европе Наполеон развязал масштабную войну. Едва успев сыграть свадьбу, капитан Горацио Хорнблауэр получает новый приказ. Он должен разыскать разведывательный шлюп «Кузнечик», который при странных обстоятельствах бесследно исчез у берегов Франции. Во время шторма Хорнблауэр спасает от стихии загадочную молодую чету, неизвестно как оказавшуюся в открытом море.СэмплКачество: DVDRip
Формат: AVI
Видео кодек: XviD
Аудио кодек: AC3
Видео: 704x400 (1.76:1), 25 fps, XviD MPEG-4 ~823 kbps avg, 0.12 bit/pixel
Аудио: 48 kHz, AC3 Dolby Digital, 2/0 (L,R) ch, ~192 kbps

MI

Общее
Полное имя : D:\Hornblower.1-3.sezon.(8.serij).1996-2003.XViD.DVDRip\Hornblower третий сезон\Hornblower.S03E02.avi
Формат : AVI
Формат/Информация : Audio Video Interleave
Размер файла : 702 Мбайт
Продолжительность : 1 ч. 36 м.
Общий поток : 1022 Кбит/сек
Программа кодирования : VirtualDubMod 1.5.4.1 (build 2178/release)
Библиотека кодирования : VirtualDubMod build 2178/release
Видео
Идентификатор : 0
Формат : MPEG-4 Visual
Профиль формата : Advanced Simple@L5
Параметр BVOP формата : 1
Параметр QPel формата : Нет
Параметр GMC формата : Без точки перехода
Параметр матрицы формата : Выборочная
Идентификатор кодека : XVID
Идентификатор кодека/Подсказка : XviD
Продолжительность : 1 ч. 36 м.
Битрейт : 823 Кбит/сек
Ширина : 704 пикселя
Высота : 400 пикселей
Соотношение сторон : 16:9
Частота кадров : 25,000 кадров/сек
Цветовое пространство : YUV
Субдискретизация насыщенности : 4:2:0
Битовая глубина : 8 бит
Тип развёртки : Прогрессивная
Метод сжатия : С потерями
Бит/(Пиксели*Кадры) : 0.117
Размер потока : 565 Мбайт (81%)
Библиотека кодирования : XviD 64
Аудио
Идентификатор : 1
Формат : AC-3
Формат/Информация : Audio Coding 3
Расширение режима : CM (complete main)
Параметр Endianness формата : Big
Идентификатор кодека : 2000
Продолжительность : 1 ч. 35 м.
Вид битрейта : Постоянный
Битрейт : 192 Кбит/сек
Каналы : 2 канала
Расположение каналов : Front: L R
Частота : 48,0 КГц
Битовая глубина : 16 бит
Метод сжатия : С потерями
Размер потока : 132 Мбайт (19%)
Выравнивание : Разделение по промежуткам
Продолжительность промежутка : 96 мс. (2,40 видеокадра)
Время предзагрузки промежутка : 96 мс.
Язык : Russian

Скриншот c названием фильма

Скриншоты

1 сезон http://rutracker.org/forum/viewtopic.php?t=4193760
2 сезон http://rutracker.org/forum/viewtopic.php?t=4194733

_________________
Показать сообщения:    

Текущее время: Сегодня 14:40

Часовой пояс: GMT



Вы не можете начинать темы
Вы не можете отвечать на сообщения
Вы не можете редактировать свои сообщения
Вы не можете удалять свои сообщения
Вы не можете голосовать в опросах
Вы не можете прикреплять файлы к сообщениям
Вы не можете скачивать файлы