Капитан Рон / Captain Ron (Том Эберхардт / Thom Eberhardt) [1992, США, комедия, приключения, семейный, WEB-DL 720p] MVO (1 канал) + DVO (Видеосервис) + 3x AVO (Горчаков, Михалёв, Сонькин) + Sub Eng + Original Eng + Ukr (ICTV) :: Ивановский Торрент трекер
Важное объявление!
У Нас Все раздачи мультитрекерные, при нуле пиров в релизах, можете смело вставать на закачку!
Статистика раздачи
Размер:     |    Зарегистрирован:     |    Скачан:     |   
Нет
 
     
 
 
Автор Сообщение

HUNTER

Стаж:
4 года 11 месяцев
Сообщений:
66077

Репутация: 101

[+] [-]
Вне форума [Профиль] [ЛС]

02.08.16 раздача обновлена. Добавлены переводы: Горчакова, Сонькина, ICTV.-Капитан Рон / Captain Ron
Страна: США
Жанр: комедия, приключения, семейный
Год выпуска: 1992
Продолжительность: 01:40:05
Перевод 1: Профессиональный (многоголосый закадровый) 1 канал
Перевод 2: Профессиональный (двухголосый закадровый) Видеосервис
Перевод 3: Авторский (одноголосый закадровый) Василий Горчаков
Перевод 4: Авторский (одноголосый закадровый) Алексей Михалёв
Перевод 5: Авторский (одноголосый закадровый) Владимир Сонькин
Cубтитры: английские
Оригинальная аудиодорожка: английский
Режиссер: Том Эберхардт / Thom Eberhardt
В ролях: Курт Рассел, Мартин Шорт, Мэри Кэй Плэйс, Бенжамин Салисбери, Медоу Систо, Саншайн Логроньо, Хорхе Луис Рамос, Дж.А. Престон, Таня Солер, Рауль Эстела...
Описание: Отец семейства Мартин Харви получает в наследство настоящую яхту… полусгнившее старое корыто, на которое не то что подняться — смотреть страшно. Но неунывающий Мартин решает отправиться на ней в дальнее плавание. Осталось только найти того, кто окажется вполне не в своем уме, чтобы принять командование над этим летучим голландцем.
И тогда на пристани появляется странный незнакомец, настоящий морской волк, только немного потрепанный штормами. Он назвался «Капитаном Роном», и со словами «что починится — починим в море, а суждено потонуть — потонем», созвал всех наверх. И вот корабль Харви, напоминающий Титаник после катастрофы, отправляется навстречу опасностям. На мостике — великолепный Рон. А с таким капитаном и айсберг не нужен.
Сэмпл: http://sendfile.su/1254743
Тип релиза: WEB-DL 720p
Контейнер: MKV
Видео: 1280x718 (16:9), 23.976 fps, AVC, ~3918 Kbps, 0.178 bits/pixel
Аудио 1: Russian, 48.0 KHz, AC3, 2 ch, 192 Kbps - 1 канал
Аудио 2: Russian, 48.0 KHz, AC3, 2 ch, 192 Kbps - Видеосервис
Аудио 3: Russian, 48.0 KHz, AC3, 2 ch, 192 Kbps - Василий Горчаков
Аудио 4: Russian, 48.0 KHz, AC3, 2 ch, 192 Kbps - Алексей Михалёв
Аудио 5: Russian, 48.0 KHz, AC3, 2 ch, 192 Kbps - Владимир Сонькин
Аудио 6: Ukrainian, 48.0 KHz, AC3, 2 ch, 192 Kbps - ICTV
Аудио 7: English, 48.0 KHz, AC3, 6 ch, 384 Kbps

Доп. информация

Оцифровка перевода Сонькина - PUSSEN.
Перевод Горчакова с раздачи edich2, оцифровал 21Sepsis, синхронизировал JUSTKANT.
Оцифровка перевода Видеосервиса - Fikaloid, синхронизация - team_6strun.
Перевод Михалева с раздачи _int_.
Перевод 1 канала с раздачи Scarabey.
Синхронизация переводов: 1 канала, Михалева, Сонькина, ICTV - Dreven.

MediaInfo

General
Unique ID : 227978884293494472236935588680419018650 (0xAB8322D08F8893D4B1304FEEA570879A)
Complete name : D:\Captain Ron. WEB-DL 720p.mkv
Format : Matroska
Format version : Version 4 / Version 2
File size : 3.89 GiB
Duration : 1h 40mn
Overall bit rate : 5 565 Kbps
Encoded date : UTC 2016-08-02 18:47:15
Writing application : mkvmerge v9.3.1 ('Mask Machine') 64bit
Writing library : libebml v1.3.4 + libmatroska v1.4.5
Video
ID : 1
Format : AVC
Format/Info : Advanced Video Codec
Format profile : High@L3.1
Format settings, CABAC : No
Format settings, ReFrames : 2 frames
Codec ID : V_MPEG4/ISO/AVC
Duration : 1h 40mn
Bit rate : 4 026 Kbps
Width : 1 280 pixels
Height : 718 pixels
Display aspect ratio : 16:9
Frame rate mode : Constant
Frame rate : 23.976 (23976/1000) fps
Color space : YUV
Chroma subsampling : 4:2:0
Bit depth : 8 bits
Scan type : Progressive
Bits/(Pixel*Frame) : 0.183
Stream size : 2.81 GiB (72%)
Language : English
Default : Yes
Forced : No
Color range : Limited
Color primaries : BT.709
Transfer characteristics : BT.709
Matrix coefficients : BT.709
Audio #1
ID : 2
Format : AC-3
Format/Info : Audio Coding 3
Mode extension : CM (complete main)
Format settings, Endianness : Big
Codec ID : A_AC3
Duration : 1h 40mn
Bit rate mode : Constant
Bit rate : 192 Kbps
Channel(s) : 2 channels
Channel positions : Front: L R
Sampling rate : 48.0 KHz
Frame rate : 31.250 fps (1536 spf)
Compression mode : Lossy
Stream size : 137 MiB (3%)
Title : 1 канал
Language : Russian
Default : Yes
Forced : No
Audio #2
ID : 3
Format : AC-3
Format/Info : Audio Coding 3
Mode extension : CM (complete main)
Format settings, Endianness : Big
Codec ID : A_AC3
Duration : 1h 40mn
Bit rate mode : Constant
Bit rate : 192 Kbps
Channel(s) : 2 channels
Channel positions : Front: L R
Sampling rate : 48.0 KHz
Frame rate : 31.250 fps (1536 spf)
Compression mode : Lossy
Stream size : 137 MiB (3%)
Title : Видеосервис
Language : Russian
Default : No
Forced : No
Audio #3
ID : 4
Format : AC-3
Format/Info : Audio Coding 3
Mode extension : CM (complete main)
Format settings, Endianness : Big
Codec ID : A_AC3
Duration : 1h 40mn
Bit rate mode : Constant
Bit rate : 192 Kbps
Channel(s) : 2 channels
Channel positions : Front: L R
Sampling rate : 48.0 KHz
Frame rate : 31.250 fps (1536 spf)
Compression mode : Lossy
Stream size : 137 MiB (3%)
Title : Василий Горчаков
Language : Russian
Default : No
Forced : No
Audio #4
ID : 5
Format : AC-3
Format/Info : Audio Coding 3
Mode extension : CM (complete main)
Format settings, Endianness : Big
Codec ID : A_AC3
Duration : 1h 40mn
Bit rate mode : Constant
Bit rate : 192 Kbps
Channel(s) : 2 channels
Channel positions : Front: L R
Sampling rate : 48.0 KHz
Frame rate : 31.250 fps (1536 spf)
Compression mode : Lossy
Stream size : 137 MiB (3%)
Title : Алексей Михалёв
Language : Russian
Default : No
Forced : No
Audio #5
ID : 6
Format : AC-3
Format/Info : Audio Coding 3
Mode extension : CM (complete main)
Format settings, Endianness : Big
Codec ID : A_AC3
Duration : 1h 40mn
Bit rate mode : Constant
Bit rate : 192 Kbps
Channel(s) : 2 channels
Channel positions : Front: L R
Sampling rate : 48.0 KHz
Frame rate : 31.250 fps (1536 spf)
Compression mode : Lossy
Stream size : 137 MiB (3%)
Title : Владимир Сонькин
Language : Russian
Default : No
Forced : No
Audio #6
ID : 7
Format : AC-3
Format/Info : Audio Coding 3
Mode extension : CM (complete main)
Format settings, Endianness : Big
Codec ID : A_AC3
Duration : 1h 40mn
Bit rate mode : Constant
Bit rate : 192 Kbps
Channel(s) : 2 channels
Channel positions : Front: L R
Sampling rate : 48.0 KHz
Frame rate : 31.250 fps (1536 spf)
Compression mode : Lossy
Stream size : 137 MiB (3%)
Title : ICTV
Language : Ukrainian
Default : No
Forced : No
Audio #7
ID : 8
Format : AC-3
Format/Info : Audio Coding 3
Mode extension : CM (complete main)
Format settings, Endianness : Big
Codec ID : A_AC3
Duration : 1h 40mn
Bit rate mode : Constant
Bit rate : 384 Kbps
Channel(s) : 6 channels
Channel positions : Front: L C R, Side: L R, LFE
Sampling rate : 48.0 KHz
Frame rate : 31.250 fps (1536 spf)
Compression mode : Lossy
Stream size : 275 MiB (7%)
Language : English
Default : No
Forced : No
Text
ID : 9
Format : UTF-8
Codec ID : S_TEXT/UTF8
Codec ID/Info : UTF-8 Plain Text
Duration : 1h 34mn
Bit rate : 51 bps
Count of elements : 894
Stream size : 35.8 KiB (0%)
Language : English
Default : No
Forced : No
Menu
00:00:00.000 : en:Opening Titles/Someday
00:11:48.000 : en:A Classic
00:16:03.000 : en:Call Me Captain Ron
00:23:16.000 : en:The Adventure Begins
00:32:26.000 : en:Make The Game Interesting
00:38:47.000 : en:The Land Of Voodoo
00:47:15.000 : en:Pirates Of The Caribbean
00:56:53.000 : en:Worth Getting Lost
01:05:20.000 : en:Carnival
01:14:36.000 : en:Welcome To Cuba
01:25:34.000 : en:Nothing Can Stop Us Now
01:33:47.000 : en:Miami/End Credits

Скриншоты


_________________
Показать сообщения:    

Текущее время: Сегодня 08:57

Часовой пояс: GMT



Вы не можете начинать темы
Вы не можете отвечать на сообщения
Вы не можете редактировать свои сообщения
Вы не можете удалять свои сообщения
Вы не можете голосовать в опросах
Вы не можете прикреплять файлы к сообщениям
Вы не можете скачивать файлы