Важное объявление!
У Нас Все раздачи мультитрекерные, при нуле пиров в релизах, можете смело вставать на закачку!
Статистика раздачи
Размер:     |    Зарегистрирован:     |    Скачан:     |   
Нет
 
     
 
 
Автор Сообщение

HUNTER

Стаж:
5 лет
Сообщений:
68053

Репутация: 101

[+] [-]
Вне форума [Профиль] [ЛС]

Капитан Земля / Captain Earth
Страна: Япония
Год выпуска: 2014 г.
Жанр: приключения, фантастика, меха
Тип: TV-Продолжительность: >12 эп., 25 мин.
Режиссер: Игараси Такуя
Студия: Bones-Переводчик: Reaper
Редактор: AleX_MytH
Редактор/Оформление: BO3DYX
Озвучивание: Sad_Kit [Anything Group]
Сэмпл-Описание: Главный герой, 17-летний старшеклассник Дайти Манацу, отец которого погиб в космосе, когда Дайти был ребенком. В последствии Дайти уехал с острова Танегасима. однако, когда он видит по телевизору странную радугу над космическим центром, он возвращается обратно, и волею судьбы оказывается в гуще событий. Благодаря огромному опыту в компьютерных играх, он становится идеальным пилотом для сложного боевого робота по названием "Привод Земли" и противостоит пришельцам, которых называют «Килтганг».-ANN | AniDB.net | World-Art.ru-Качество: HDTVRip
Тип релиза: Без хардсаба
Формат видео: MKV
Наличие линковки: Нет
Релиз/Автор рипа: [Leopard-Raws]
Видео: AVS, 8 bit, 1280x720, 1 686 Kbps, 23.976 fps
Аудио: AC3, 192 kbps, 48000 Hz, 2 ch. Язык: Русский (в составе контейнера) ; Озвучка: (одноголосая), Sad_Kit [Anything Group]
Аудио 2: AAC, 191 Kbps, 48000 Hz, 2ch. Язык: Японский ; оригинальная
Субтитры: В составе контейнера Язык субтитров русский ; Перевод: Reaper

Подробные тех. данные

GeneralUnique ID : 210499351033434921464575962616040665542 (0x9E5CB349ACBB7F59BF92A3F089E231C6)Complete name : Captain Earth - 01 [Anything Group].mkvFormat : MatroskaFormat version : Version 4 / Version 2File size : 372 MiBDuration : 24mn 37sOverall bit rate : 2 111 KbpsEncoded date : UTC 2010-02-22 21:41:31Writing application : mkvmerge v5.9.0 ('On The Loose') built on Dec 9 2012 15:37:01Writing library : libebml v1.3.0 + libmatroska v1.4.0
VideoID : 2Format : AVCFormat/Info : Advanced Video CodecFormat profile : High@L4.1Format settings, CABAC : YesFormat settings, ReFrames : 4 framesCodec ID : V_MPEG4/ISO/AVCDuration : 24mn 37sBit rate : 1 686 KbpsWidth : 1 280 pixelsHeight : 720 pixelsDisplay aspect ratio : 16:9Frame rate mode : ConstantFrame rate : 23.976 fpsColor space : YUVChroma subsampling : 4:2:0Bit depth : 8 bitsScan type : ProgressiveBits/(Pixel*Frame) : 0.076Stream size : 297 MiB (80%)Writing library : x264 core 129 r2245+729M 1a52e03Encoding settings : cabac=1 / ref=4 / deblock=1:1:-1 / analyse=0x3:0x113 / me=umh / subme=9 / psy=1 / fade_compensate=0.00 / psy_rd=1.00:0.00 / mixed_ref=1 / me_range=24 / chroma_me=1 / trellis=2 / 8x8dct=1 / cqm=0 / deadzone=21,11 / fast_pskip=1 / chroma_qp_offset=-2 / threads=8 / lookahead_threads=1 / sliced_threads=0 / nr=0 / decimate=1 / interlaced=0 / bluray_compat=0 / constrained_intra=0 / fgo=0 / bframes=9 / b_pyramid=2 / b_adapt=2 / b_bias=0 / direct=1 / weightb=1 / open_gop=0 / weightp=2 / keyint=240 / keyint_min=24 / scenecut=40 / intra_refresh=0 / rc=crf / mbtree=0 / crf=19.0 / qcomp=0.72 / qpmin=0 / qpmax=69 / qpstep=4 / ip_ratio=1.40 / pb_ratio=1.30 / aq=1:0.85Language : EnglishDefault : NoForced : No
Audio #1ID : 1Format : AC-3Format/Info : Audio Coding 3Mode extension : CM (complete main)Format settings, Endianness : BigCodec ID : A_AC3Duration : 24mn 37sBit rate mode : ConstantBit rate : 192 KbpsChannel count : 2 channelsChannel positions : Front: L RSampling rate : 48.0 KHzBit depth : 16 bitsCompression mode : LossyDelay relative to video : -83msStream size : 33.8 MiB (9%)Title : RULanguage : RussianDefault : YesForced : No
Audio #2ID : 3Format : 4441Codec ID : A_MS/ACM / 4441Duration : 24mn 37sBit rate : 191 KbpsChannel count : 2 channelsSampling rate : 48.0 KHzStream size : 33.7 MiB (9%)Title : JPLanguage : JapaneseDefault : NoForced : No
TextID : 4Format : ASSCodec ID : S_TEXT/ASSCodec ID/Info : Advanced Sub Station AlphaCompression mode : LosslessTitle : RULanguage : RussianDefault : NoForced : No

Список эпизодов

01. Привод Земли, в бой!

Отличия

http://rutracker.org/forum/viewtopic.php?t=4710182 - Наличие озвучки

Скриншоты

Серии добавляются по мере озвучивания

_________________
Показать сообщения:    

Текущее время: Сегодня 07:00

Часовой пояс: GMT



Вы не можете начинать темы
Вы не можете отвечать на сообщения
Вы не можете редактировать свои сообщения
Вы не можете удалять свои сообщения
Вы не можете голосовать в опросах
Вы не можете прикреплять файлы к сообщениям
Вы не можете скачивать файлы