Важное объявление!
У Нас Все раздачи мультитрекерные, при нуле пиров в релизах, можете смело вставать на закачку!
Статистика раздачи
Размер:     |    Зарегистрирован:     |    Скачан:     |   
Нет
 
     
 
 
Автор Сообщение

HUNTER

Стаж:
5 лет
Сообщений:
67958

Репутация: 101

[+] [-]
Вне форума [Профиль] [ЛС]

Капитал / Le capital
Страна: Франция
Студия: K.G. Productions
Жанр: Драма
Год выпуска: 2012
Продолжительность: 01:46:12
Перевод: Профессиональный (многоголосый закадровый) AB Video по заказу Первого канала
Cубтитры: нет
Оригинальная аудиодорожка: нет
Режиссер: Коста-Гаврас / Costa-Gavras
В ролях: Гад Эльмалех, Гэбриел Бирн, Наташа Ренье, Селин Саллетт, Лия Кебеде, Ипполит Жирардо, Даниэль Месгиш, Ольга Грумберг, Бернар Ле Кок, Филипп Дюкло
Описание: После того как директор банка «Феникс» падает во время игры в гольф, его место занимает молодой амбициозный менеджер Марк Турнье. Сев в кресло главы крупнейшего французского банка, Турнье начинает доказывать, что он не марионетка, а полноценный президент, пытается лихо управлять финансовыми потоками и старается спасти банк от захвата американскими акционерами…-
MPAA: R - Лицам до 17 лет обязательно присутствие взрослого-Релиз подготовил Parabellumm, специально для -Тип релиза: HDTV 1080i - Sample
Контейнер: TS
Видео: MPEG-4 AVC, 1920x1080 (16:9), 5425 Кбит/с, 25 кадров/сек, 0.105 бит/пиксель
Аудио: MPEG Layer 2, 48 КГц, 2 канал, 224 Кбит/с

MediaInfo

Общее
Идентификатор : 1 (0x1)
Полное имя : C:\Фильмы\Le.Capital.2012.1080i.HDTV.Rutracker-PB.ts
Формат : MPEG-TS
Размер файла : 4,41 Гбайт
Продолжительность : 1 ч. 46 м.
Режим общего битрейта : Переменный
Общий поток : 5945 Кбит/сек
Видео
Идентификатор : 67 (0x43)
Идентификатор меню : 1 (0x1)
Формат : AVC
Формат/Информация : Advanced Video Codec
Профиль формата : High@L4.0
Параметр CABAC формата : Да
Параметр ReFrames формата : 3 кадра
Идентификатор кодека : 27
Продолжительность : 1 ч. 46 м.
Битрейт : 5425 Кбит/сек
Ширина : 1920 пикселей
Высота : 1080 пикселей
Соотношение сторон : 16:9
Частота кадров : 25,000 кадров/сек
Стандарт вещания : Component
Цветовое пространство : YUV
Субдискретизация насыщенности : 4:2:0
Битовая глубина : 8 бит
Тип развёртки : Чересстрочная
Порядок развёртки : Верхнее поле первое
Бит/(Пиксели*Кадры) : 0.105
Размер потока : 4,02 Гбайт (91%)
Основные цвета : BT.709
Характеристики трансфера : BT.709
Коэффициенты матрицы : BT.709
Аудио
Идентификатор : 68 (0x44)
Идентификатор меню : 1 (0x1)
Формат : MPEG Audio
Версия формата : Version 1
Профиль формата : Layer 2
Идентификатор кодека : 3
Продолжительность : 1 ч. 46 м.
Вид битрейта : Постоянный
Битрейт : 224 Кбит/сек
Каналы : 2 канала
Частота : 48,0 КГц
Метод сжатия : С потерями
Размер потока : 170 Мбайт (4%)
Язык : Russian

Скриншоты



_________________
Показать сообщения:    

Текущее время: Сегодня 04:47

Часовой пояс: GMT



Вы не можете начинать темы
Вы не можете отвечать на сообщения
Вы не можете редактировать свои сообщения
Вы не можете удалять свои сообщения
Вы не можете голосовать в опросах
Вы не можете прикреплять файлы к сообщениям
Вы не можете скачивать файлы