Ивановский Торрент трекер
Яндекс.Погода
 

[Цитировать]
HUNTER

Каникулы строгого режима
Год выпуска: 2009
Производство: Дирекция Кино, Buzz Production
Жанр: комедия, приключения, детектив
Продолжительность: 01:54:27
Русские субтитры: есть-Режиссёр: Игорь Зайцев
Сценарий: Андрей Кивинов (роман), Федор Крестовой (роман)
Продюсеры: Джаник Файзиев, Анатолий Максимов, Николай Попов
Оператор: Антуан Вивас-Денисов
Композитор: Руслан Муратов-В ролях: Сергей Безруков, Дмитрий Дюжев, Алена Бабенко, Сабина Ахмедова, Владимир Меньшов, Алексей Кравченко, Станислав Лесной, Александр Лыков, Кирилл Плетнев, Роман Мадянов, Людмила Полякова, Михаил Богдасаров, Малхаз Абуладзе-Описание: История о том, как двое не самых молодых людей, Кольцов и Сумароков, волею судьбы оказались вожатыми в пионерском лагере в компании в меру энергичного руководства и не в меру энергичных детей. Все бы ничего, да только попали они туда прямо с арестантской шконки.
Сначала Кольцов, будучи весьма уважаемым профессиональным сотрудником МВД, имеющий за плечами две поездки в Чечню, вдруг по неосторожности совершает убийство своего коллеги. Стараниями родственников покойного попадает на «черную» зону, где ему не рад никто от руководящей элиты до зэков. Там он знакомится с Сумароковым. При содействии сотрудника колонии Гагарина мужчины бегут из тюрьмы и устраиваются вожатыми в пионерлагерь.-Бюджет: $5 000 000 | Кассовые сборы: $17 566 040 | Премьера в России: 25.08.2009 | Релиз на Blu-Ray: 10.11.2009, «Флагман-Трейд»- -Качество: BDrip
Формат: MKV
Видео кодек: x264
Аудио кодек: ac3
Видео: MPEG4 Video (H264) 1280x560 23.976 fps ~4600 kbps
Аудио: Dolby AC3 48000Hz 6ch 448 kbps

Скриншоты

mi

Format : Matroska
File size : 4.12 GiB
Duration : 1h 54mn
Overall bit rate : 5 149 Kbps
Encoded date : UTC 2010-03-14 08:53:10
Writing application : mkvmerge v3.2.0 ('Beginnings') built on Feb 12 2010 16:46:17
Writing library : libebml v0.7.9 + libmatroska v0.8.1
Video
ID : 1
Format : AVC
Format/Info : Advanced Video Codec
Format profile : High@L4.0
Format settings, CABAC : Yes
Format settings, ReFrames : 8 frames
Muxing mode : Container profile=Unknown@4.0
Codec ID : V_MPEG4/ISO/AVC
Duration : 1h 54mn
Bit rate : 4 599 Kbps
Nominal bit rate : 4 700 Kbps
Width : 1 280 pixels
Height : 560 pixels
Display aspect ratio : 2.25:1
Frame rate : 23.976 fps
Resolution : 24 bits
Colorimetry : 4:2:0
Scan type : Progressive
Bits/(Pixel*Frame) : 0.268
Stream size : 3.67 GiB (89%)
Writing library : x264 core 89 r1471kGIT 1144615
Encoding settings : cabac=1 / ref=8 / deblock=1:-1:-1 / analyse=0x3:0x133 / me=umh / subme=7 / psy=1 / psy_rd=1.00:0.15 / mixed_ref=1 / me_range=16 / chroma_me=1 / trellis=2 / 8x8dct=1 / cqm=0 / deadzone=21,11 / fast_pskip=1 / chroma_qp_offset=-3 / threads=6 / sliced_threads=0 / nr=0 / decimate=1 / interlaced=0 / constrained_intra=0 / bframes=6 / b_pyramid=2 / b_adapt=2 / b_bias=0 / direct=3 / wpredb=1 / wpredp=2 / keyint=250 / keyint_min=25 / scenecut=40 / intra_refresh=0 / rc_lookahead=50 / rc=2pass / mbtree=1 / bitrate=4700 / ratetol=1.0 / qcomp=0.60 / qpmin=10 / qpmax=51 / qpstep=4 / cplxblur=20.0 / qblur=0.5 / ip_ratio=1.40 / aq=1:1.00 / pulldown=0
Language : Russian
Audio
ID : 2
Format : AC-3
Format/Info : Audio Coding 3
Codec ID : A_AC3
Duration : 1h 54mn
Bit rate mode : Constant
Bit rate : 448 Kbps
Channel(s) : 6 channels
Channel positions : Front: L C R, Surround: L R, LFE
Sampling rate : 48.0 KHz
Stream size : 367 MiB (9%)
Language : Russian
Text
ID : 3
Format : UTF-8
Codec ID : S_TEXT/UTF8
Codec ID/Info : UTF-8 Plain Text
Language : Russian
Показать сообщения:    

Текущее время: 24-Сен 20:20

Часовой пояс: UTC - 1


Вы не можете начинать темы
Вы не можете отвечать на сообщения
Вы не можете редактировать свои сообщения
Вы не можете удалять свои сообщения
Вы не можете голосовать в опросах
Вы не можете прикреплять файлы к сообщениям
Вы не можете скачивать файлы

!ВНИМАНИЕ!
Сайт не предоставляет электронные версии произведений, а занимается лишь коллекционированием и каталогизацией ссылок, присылаемых и публикуемых на форуме нашими читателями. Если вы являетесь правообладателем какого-либо представленного материала и не желаете, чтобы ссылка на него находилась в нашем каталоге, свяжитесь с нами, и мы незамедлительно удалим ее. Файлы для обмена на трекере предоставлены пользователями сайта, и администрация не несет ответственности за их содержание. Просьба не заливать файлы, защищенные авторскими правами, а также файлы нелегального содержания!