Каникулы: Прочь из школы / Школьные каникулы / Recess: School\'s Out (Чак Шитз / Chuck Sheetz) [2001, США, мультфильм, фантастика, комедия, WEB-DLRip] DVO :: Ивановский Торрент трекер
Важное объявление!
У Нас Все раздачи мультитрекерные, при нуле пиров в релизах, можете смело вставать на закачку!
 
Автор Сообщение

HUNTER

Стаж:
4 года 11 месяцев
Сообщений:
66045

Репутация: 101

[+] [-]
Вне форума [Профиль] [ЛС]

Каникулы: Прочь из школы / Школьные каникулы / Recess: School's Out
Страна: США
Жанр: мультфильм, фантастика, комедия
Год выпуска: 2001
Продолжительность: 01:23:22
Перевод: Профессиональный (двухголосый закадровый)
Cубтитры: нет
Оригинальная аудиодорожка: нет-Режиссер: Чак Шитз / Chuck Sheetz-В ролях: Рики Д’Шон Коллинз, Джейсон Дэвис, Эшли Джонсон, Эндрю Лоуренс, Кортленд Мид, Памела Адлон, Дэбни Коулмен, Робер Гуле, Мелисса Джоан Харт, Питер МакНикол-Описание: Учебный год был долгим и трудным, и теперь Ти Джей Детвейлер собирается наверстать упущенное - он готов целыми сутками играть со своими друзьями. Однако его планы рушатся. Выясняется, что все его приятели разъехались по летним лагерям отдыха, оставив его в одиночестве проводить лето. Но скука мгновенно улетучивается, когда, проезжая на велосипеде мимо опустевшего школьного двора, Ти Джей видит яркий зеленый свет. Свет исходит от главного здания школы и Ти Джей убежден, что там происходит нечто сверхъестественное...-Качество видео: WEB-DLRip
Формат видео: AVI
Видео: 656x384 (1.71:1), 23.976 fps, XviD build 50 ~1109 kbps avg, 0.18 bit/pixel
Аудио: 48 kHz, MPEG Layer 3, 2 ch, ~128.00 kbps avg-Скачать сэмпл-

MediaInfo

Код:
Format                      : AVI
Format/Info                 : Audio Video Interleave
File size                   : 743 MiB
Duration                    : 1h 23mn
Overall bit rate            : 1 247 Kbps
Writing application         : VirtualDubMod 1.5.10.3 | www.virtualdub-fr.org || (build 2550/release)
Writing library             : VirtualDubMod build 2550/release
Video
ID                          : 0
Format                      : MPEG-4 Visual
Format profile              : Advanced Simple@L5
Format settings, BVOP       : 1
Format settings, QPel       : No
Format settings, GMC        : No warppoints
Format settings, Matrix     : Custom
Codec ID                    : XVID
Codec ID/Hint               : XviD
Duration                    : 1h 23mn
Bit rate                    : 1 110 Kbps
Width                       : 656 pixels
Height                      : 384 pixels
Display aspect ratio        : 1.708
Frame rate                  : 23.976 fps
Color space                 : YUV
Chroma subsampling          : 4:2:0
Bit depth                   : 8 bits
Scan type                   : Progressive
Compression mode            : Lossy
Bits/(Pixel*Frame)          : 0.184
Stream size                 : 662 MiB (89%)
Writing library             : XviD 1.2.1 (UTC 2008-12-04)
Audio
ID                          : 1
Format                      : MPEG Audio
Format version              : Version 1
Format profile              : Layer 3
Codec ID                    : 55
Codec ID/Hint               : MP3
Duration                    : 1h 23mn
Bit rate mode               : Constant
Bit rate                    : 128 Kbps
Channel(s)                  : 2 channels
Sampling rate               : 48.0 KHz
Compression mode            : Lossy
Stream size                 : 76.3 MiB (10%)
Alignment                   : Aligned on interleaves
Interleave, duration        : 42 ms (1.00 video frame)
Interleave, preload duratio : 504 ms
Writing library             : LAME3.99r
Encoding settings           : -m s -V 4 -q 2 -lowpass 17 -b 128

Скриншоты


_________________
Показать сообщения:    

Текущее время: Сегодня 19:11

Часовой пояс: GMT



Вы не можете начинать темы
Вы не можете отвечать на сообщения
Вы не можете редактировать свои сообщения
Вы не можете удалять свои сообщения
Вы не можете голосовать в опросах
Вы не можете прикреплять файлы к сообщениям
Вы не можете скачивать файлы