Важное объявление!
У Нас Все раздачи мультитрекерные, при нуле пиров в релизах, можете смело вставать на закачку!
 
Автор Сообщение

HUNTER

Стаж:
4 года 10 месяцев
Сообщений:
65561

Репутация: 101

[+] [-]
Вне форума [Профиль] [ЛС]

Каникулы мечты / What We Did On Our Holiday
Страна: Великобритания
Жанр: комедия, драма
Год выпуска: 2014
Продолжительность: 01:35:27
Перевод: Субтитры (DAVID TENNANT ASYLUM / yuliasha, Lori2014, Lissa)
Cубтитры: русские, английские
Оригинальная аудиодорожка: английский
Режиссер: Энди Гамильтон / Andy Hamilton, Гай Дженкин / Guy Jenkin
В ролях: Дэвид Теннант, Розамунд Пайк, Билли Коннолли, Селия Имри, Бен Миллер, Амелия Баллмор, Эмилия Джонс, Аннетт Кросби и др.
Описание: Что может быть лучше большого семейного праздника в Шотландии? Вся родня собирается на празднование юбилея дедушки Горди. Даг и Эби (брак трещит по швам) вместе с тремя чересчур болтливыми детьми тоже отправляются поздравить Горди. Но как убедить детей не болтать лишнего, дабы не расстроить деда, которому "недолго осталось"? Да и не в этом суть.
Сэмпл: http://multi-up.com/1028827
Тип релиза: BDRip 720p
Контейнер: MKV
Видео: AVC, 1280x696, 4 146 Kbps, 23.976 fps
Аудио: англ, DTS, 48.0 KHz, 768 Kbps, 6 channels
Формат субтитров: softsub (SRT)

MediaInfo

Complete name : C:\What.We.Did.on.Our.Holiday.2014.720.mkv
Format : Matroska
Format version : Version 4 / Version 2
File size : 3.28 GiB
Duration : 1h 35mn
Overall bit rate : 4 915 Kbps
Encoded date : UTC 2015-01-25 18:24:15
Writing application : mkvmerge v7.5.0 ('Glass Culture') 32bit built on Jan 4 2015 16:37:25
Writing library : libebml v1.3.1 + libmatroska v1.4.2
DURATION : 01:30:12.614000000
NUMBER_OF_FRAMES : 1332
NUMBER_OF_BYTES : 51359
_STATISTICS_WRITING_APP : mkvmerge v7.5.0 ('Glass Culture') 32bit built on Jan 4 2015 16:37:25
_STATISTICS_WRITING_DATE_UTC : 2015-01-25 18:24:15
_STATISTICS_TAGS : BPS DURATION NUMBER_OF_FRAMES NUMBER_OF_BYTES
Video
ID : 1
Format : AVC
Format/Info : Advanced Video Codec
Format profile : High@L4.1
Format settings, CABAC : Yes
Format settings, ReFrames : 5 frames
Codec ID : V_MPEG4/ISO/AVC
Duration : 1h 35mn
Bit rate : 4 146 Kbps
Width : 1 280 pixels
Height : 696 pixels
Display aspect ratio : 1.85:1
Frame rate mode : Constant
Frame rate : 23.976 fps
Color space : YUV
Chroma subsampling : 4:2:0
Bit depth : 8 bits
Scan type : Progressive
Bits/(Pixel*Frame) : 0.194
Stream size : 2.70 GiB (82%)
Writing library : x264 core 144 r2525 40bb568
Encoding settings : cabac=1 / ref=5 / deblock=1:-3:-3 / analyse=0x3:0x113 / me=umh / subme=8 / psy=1 / psy_rd=1.00:0.00 / mixed_ref=1 / me_range=16 / chroma_me=1 / trellis=1 / 8x8dct=1 / cqm=0 / deadzone=21,11 / fast_pskip=1 / chroma_qp_offset=-2 / threads=6 / lookahead_threads=1 / sliced_threads=0 / nr=0 / decimate=1 / interlaced=0 / bluray_compat=0 / constrained_intra=0 / bframes=3 / b_pyramid=2 / b_adapt=2 / b_bias=0 / direct=3 / weightb=1 / open_gop=0 / weightp=2 / keyint=240 / keyint_min=24 / scenecut=40 / intra_refresh=0 / rc_lookahead=50 / rc=2pass / mbtree=1 / bitrate=4146 / ratetol=1.0 / qcomp=0.60 / qpmin=0 / qpmax=69 / qpstep=4 / cplxblur=20.0 / qblur=0.5 / ip_ratio=1.40 / aq=1:1.00
Language : English
Default : Yes
Forced : No
DURATION : 01:35:27.097000000
NUMBER_OF_FRAMES : 137313
NUMBER_OF_BYTES : 2966587347
_STATISTICS_WRITING_APP : mkvmerge v7.5.0 ('Glass Culture') 32bit built on Jan 4 2015 16:37:25
_STATISTICS_WRITING_DATE_UTC : 2015-01-25 18:24:15
_STATISTICS_TAGS : BPS DURATION NUMBER_OF_FRAMES NUMBER_OF_BYTES
Audio
ID : 2
Format : DTS
Format/Info : Digital Theater Systems
Mode : 16
Format settings, Endianness : Big
Codec ID : A_DTS
Duration : 1h 35mn
Bit rate mode : Constant
Bit rate : 768 Kbps
Channel count : 6 channels
Channel positions : Front: L C R, Side: L R, LFE
Sampling rate : 48.0 KHz
Bit depth : 24 bits
Compression mode : Lossy
Stream size : 524 MiB (16%)
Title : ENG
Language : English
Default : Yes
Forced : No
Text #1
ID : 3
Format : UTF-8
Codec ID : S_TEXT/UTF8
Codec ID/Info : UTF-8 Plain Text
Title : RUS SUBS (dt_asylum)
Language : Russian
Default : Yes
Forced : No
Text #2
ID : 4
Format : UTF-8
Codec ID : S_TEXT/UTF8
Codec ID/Info : UTF-8 Plain Text
Title : ENG SUBS
Language : English
Default : No
Forced : No
Menu
00:00:00.000 : en:00:00:00.000
00:08:18.081 : en:00:08:18.081
00:15:24.590 : en:00:15:24.590
00:22:36.897 : en:00:22:36.897
00:31:19.377 : en:00:31:19.377
00:37:51.311 : en:00:37:51.311
00:45:47.870 : en:00:45:47.870
00:52:39.239 : en:00:52:39.239
01:01:47.454 : en:01:01:47.454
01:07:24.749 : en:01:07:24.749
01:15:55.426 : en:01:15:55.426
01:25:00.679 : en:01:25:00.679

Скриншоты



_________________
Показать сообщения:    

Текущее время: Сегодня 16:01

Часовой пояс: GMT



Вы не можете начинать темы
Вы не можете отвечать на сообщения
Вы не можете редактировать свои сообщения
Вы не можете удалять свои сообщения
Вы не можете голосовать в опросах
Вы не можете прикреплять файлы к сообщениям
Вы не можете скачивать файлы