Ивановский Торрент трекер
Яндекс.Погода
 

[Цитировать]
HUNTER

Камелот / Camelot
Страна: США
Студия: Golden Films
Жанр: Мультфильм, приключения, семейный
Продолжительность: 00:50:38
Год выпуска: 1998
Перевод: Профессиональный (дублированный)
Русские субтитры: нет
Режиссёр: Грег Гарсиа, Диана Эшкенази / Greg Garcia, Diane Eskenazi-Описание: Еще со времен своей юности Артур, приемный сын великого волшебника Мерлина и колдуньи с острова Авалон, знал, что ему суждено стать могущественным королем, который объединит всю Британию в борьбе с напавшими на нее варварами. Однажды молодой король Артур спас от злобного дракона юную прекрасную Дженевру, он полюбил ее, сделал королевой, и они вместе стали править страной, где царят мир и изобилие.
Но вот спокойствию приходит конец: жестокий Мордред повергает королевство в хаос, и покончить с этим можно только одним путем — устроив смертельный поединок между Артуром и его старым другом, благородным сэром Ланселотом.
-Качество: DVDRemux
Формат: MKV
Видео: MPEG-2 PAL, 720x576, 25fps, ~3500 Kb/s
Аудио 1: AC3, 48khz, 2ch, 192 kb/s Русский (дубляж)
Аудио 2: AC3, 48khz, 2ch, 192 kb/s Українська (MVO)
Аудио 3: AC3, 48khz, 2ch, 192 kb/s English (original)
Субтитры: отсутствуют
Релиз:

Подробные технические данные

ОбщееУникальный идентификатор : 211536903824621779589621230384912244690 (0x9F24869705158BDFA1B8FF14FF539FD2)Полное имя : E:\MULTFILMS\Camelot\Camelot 1998.mkvФормат : MatroskaВерсия формата : Version 4 / Version 2Размер файла : 1,48 ГбайтПродолжительность : 50 м.Режим общего битрейта : ПеременныйОбщий поток : 4181 Кбит/секДата кодирования : UTC 2014-07-29 20:38:13Программа кодирования : mkvmerge v6.7.0 ('Back to the Ground') 32bit built on Jan 8 2014 15:03:17Библиотека кодирования : libebml v1.3.0 + libmatroska v1.4.1
ВидеоИдентификатор : 1Формат : MPEG VideoВерсия формата : Version 2Профиль формата : Main@MainПараметр BVOP формата : НетПараметр матрицы формата : ВыборочнаяИдентификатор кодека : V_MPEG2Идентификатор кодека/Информация : MPEG 1 or 2 VideoПродолжительность : 50 м.Вид битрейта : ПеременныйБитрейт : 3522 Кбит/секМаксимальный битрейт : 7000 Кбит/секШирина : 720 пикселейВысота : 576 пикселейСоотношение сторон : 4:3Режим частоты кадров : ПостоянныйЧастота кадров : 25,000 кадров/секСтандарт вещания : PALЦветовое пространство : YUVСубдискретизация насыщенности : 4:2:0Битовая глубина : 8 битТип развёртки : ЧересстрочнаяПорядок развёртки : Нижнее поле первоеМетод сжатия : С потерямиБит/(Пиксели*Кадры) : 0.340Временной код первого кадра : 00:00:00:00Оригинал временного кода : Group of pictures headerРазмер потока : 1,25 Гбайт (84%)Заголовок : MPEG2Default : ДаForced : Нет
Аудио #1Идентификатор : 2Формат : AC-3Формат/Информация : Audio Coding 3Расширение режима : CM (complete main)Параметр Endianness формата : BigИдентификатор кодека : A_AC3Продолжительность : 50 м.Вид битрейта : ПостоянныйБитрейт : 192 Кбит/секКаналы : 2 каналаРасположение каналов : Front: L RЧастота : 48,0 КГцБитовая глубина : 16 битМетод сжатия : С потерямиРазмер потока : 69,5 Мбайт (5%)Заголовок : DUBЯзык : RussianDefault : ДаForced : Нет
Аудио #2Идентификатор : 3Формат : AC-3Формат/Информация : Audio Coding 3Расширение режима : CM (complete main)Параметр Endianness формата : BigИдентификатор кодека : A_AC3Продолжительность : 50 м.Вид битрейта : ПостоянныйБитрейт : 192 Кбит/секКаналы : 2 каналаРасположение каналов : Front: L RЧастота : 48,0 КГцБитовая глубина : 16 битМетод сжатия : С потерямиРазмер потока : 69,5 Мбайт (5%)Заголовок : MVOЯзык : UkrainianDefault : НетForced : Нет
Аудио #3Идентификатор : 4Формат : AC-3Формат/Информация : Audio Coding 3Расширение режима : CM (complete main)Параметр Endianness формата : BigИдентификатор кодека : A_AC3Продолжительность : 50 м.Вид битрейта : ПостоянныйБитрейт : 192 Кбит/секКаналы : 2 каналаРасположение каналов : Front: L RЧастота : 48,0 КГцБитовая глубина : 16 битМетод сжатия : С потерямиРазмер потока : 69,5 Мбайт (5%)Заголовок : originalЯзык : EnglishDefault : НетForced : Нет

Скриншоты


Показать сообщения:    

Текущее время: 21-Сен 16:53

Часовой пояс: UTC - 1


Вы не можете начинать темы
Вы не можете отвечать на сообщения
Вы не можете редактировать свои сообщения
Вы не можете удалять свои сообщения
Вы не можете голосовать в опросах
Вы не можете прикреплять файлы к сообщениям
Вы не можете скачивать файлы

!ВНИМАНИЕ!
Сайт не предоставляет электронные версии произведений, а занимается лишь коллекционированием и каталогизацией ссылок, присылаемых и публикуемых на форуме нашими читателями. Если вы являетесь правообладателем какого-либо представленного материала и не желаете, чтобы ссылка на него находилась в нашем каталоге, свяжитесь с нами, и мы незамедлительно удалим ее. Файлы для обмена на трекере предоставлены пользователями сайта, и администрация не несет ответственности за их содержание. Просьба не заливать файлы, защищенные авторскими правами, а также файлы нелегального содержания!