Ивановский Торрент трекер
Яндекс.Погода
 

[Цитировать]
HUNTER

Кама Сутра: История любви / Kama Sutra: A Tale of Love
Страна: США, Индия, Великобритания, Япония, Германия
Год выпуска: 1996
Жанр: драма, мелодрама, криминал, история
Продолжительность: 01:54:07Перевод: Профессиональный (многоголосый, закадровый)
Субтитры: французские, испанские
Оригинальная аудиодорожка: английскаяРежиссер: Мира Наир / Mira NairВ ролях: Индира Варма, Сарита Чоудри, Рамон Тикарам, Навин Эндрюс, Рекха, Халид Тайабджи, Арундати Рао, Сурабхи Бхансали, Гарима Дхуп, Перл ПадмсиОписание: Кама Сутра — история любви. Индия, XVI-й век. Маленькая девочка Майя, дочь танцовщицы, живет при дворце магараджи. Ей разрешают донашивать старую одежду принцессы Тары, посещать уроки танцев и слушать лекции о любви по древней книге Кама Сутра.
Проходят годы, и девочки становятся прелестными девушками, за принцессу Тару сватается прекрасный принц Радж Сингх. Но под жарким солнцем Индии любовь не признает сословных различий.
У одной соперницы есть титул и власть, а у другой лишь красота и непревзойденное искусство обольщения. Чем закончится этот изысканный и жестокий поединок?Меню: есть, английское, статичноеТип релиза: DVD9
Контейнер: DVD-VideoВидео: NTSC 4:3 (720x480(0.581)) MPEG Video, 23,976 кадр/сек, 4813 Кбит/сек
Аудио: Russian (Dolby AC-3, 2ch) 192 Кбит/сек, 48.0 КГц
Аудио 2: English (Dolby AC-3, 2ch) 192 Кбит/сек, 48.0 КГц
Аудио 3: English (Dolby AC-3, 2ch) 192 Кбит/сек, 48.0 КГц

MediaInfo

Общее
Полное имя : Kama_Sutra_Istoriya_l'ubvi_[torrents.ru]\VIDEO_TS\VTS_01_1.VOB
Формат : MPEG-PS
Размер файла : 1024 Мбайт
Продолжительность : 26 м. 2 с.
Режим общего битрейта : Переменный
Общий поток : 5498 Кбит/секВидео
Идентификатор : 224 (0xE0)
Формат : MPEG Video
Версия формата : Version 2
Профиль формата : Main@Main
Параметр BVOP формата : Да
Параметр матрицы формата : Выборочная
Параметр GOP формата : M=3, N=12
Продолжительность : 26 м. 2 с.
Вид битрейта : Переменный
Битрейт : 4813 Кбит/сек
Максимальный битрейт : 8502 Кбит/сек
Ширина : 720 пикселей
Высота : 480 пикселей
Соотношение сторон : 4:3
Частота кадров : 23,976 (24000/1001) кадра/сек
Цветовое пространство : YUV
Субдискретизация насыщенности : 4:2:0
Битовая глубина : 8 бит
Тип развёртки : Прогрессивная
Порядок развёртки : 2:3 Pulldown
Метод сжатия : С потерями
Бит/(Пиксели*Кадры) : 0.581
Временной код первого кадра : 01:00:00;00
Оригинал временного кода : Group of pictures header
Размер потока : 896 Мбайт (88%)Аудио #1
Идентификатор : 189 (0xBD)-128 (0x80)
Формат : AC-3
Формат/Информация : Audio Coding 3
Параметр Endianness формата : Big
Режим смешивания : DVD-Video
Продолжительность : 26 м. 1 с.
Вид битрейта : Постоянный
Битрейт : 192 Кбит/сек
Каналы : 2 канала
Расположение каналов : Front: L R
Частота : 48,0 КГц
Частота кадров : 31,250 кадров/сек (1536 spf)
Битовая глубина : 16 бит
Метод сжатия : С потерями
Задержка видео : -2 мс.
Размер потока : 35,8 Мбайт (3%)
ServiceKind/String : Complete MainАудио #2
Идентификатор : 189 (0xBD)-129 (0x81)
Формат : AC-3
Формат/Информация : Audio Coding 3
Параметр Endianness формата : Big
Режим смешивания : DVD-Video
Продолжительность : 26 м. 1 с.
Вид битрейта : Постоянный
Битрейт : 192 Кбит/сек
Каналы : 2 канала
Расположение каналов : Front: L R
Частота : 48,0 КГц
Частота кадров : 31,250 кадров/сек (1536 spf)
Битовая глубина : 16 бит
Метод сжатия : С потерями
Задержка видео : -2 мс.
Размер потока : 35,8 Мбайт (3%)
ServiceKind/String : Complete MainАудио #3
Идентификатор : 189 (0xBD)-130 (0x82)
Формат : AC-3
Формат/Информация : Audio Coding 3
Параметр Endianness формата : Big
Режим смешивания : DVD-Video
Продолжительность : 26 м. 1 с.
Вид битрейта : Постоянный
Битрейт : 192 Кбит/сек
Каналы : 2 канала
Расположение каналов : Front: L R
Частота : 48,0 КГц
Частота кадров : 31,250 кадров/сек (1536 spf)
Битовая глубина : 16 бит
Метод сжатия : С потерями
Задержка видео : -2 мс.
Размер потока : 35,8 Мбайт (3%)
ServiceKind/String : Complete MainТекст #1
Идентификатор : 189 (0xBD)-32 (0x20)
Формат : RLE
Формат/Информация : Run-length encoding
Режим смешивания : DVD-Video
Продолжительность : 25 м. 21 с.
Задержка видео : 14 с. 214 мс.Текст #2
Идентификатор : 189 (0xBD)-33 (0x21)
Формат : RLE
Формат/Информация : Run-length encoding
Режим смешивания : DVD-Video
Продолжительность : 25 м. 22 с.
Задержка видео : 14 с. 214 мс.Текст #3
Идентификатор : 224 (0xE0)-CC3
Формат : EIA-608
Режим смешивания, доп. информация : Muxed in Video #1
Продолжительность : 26 м. 2 с.
Вид битрейта : Постоянный
Размер потока : 0,00 байт (0%)
CaptionServiceName : CC3

Скриншоты меню

Скриншоты

0 человек читают эту тему: 0 пользователей, 0 скрытых пользователей, 0 гостей

Показать сообщения:    

Текущее время: 23-Авг 09:18

Часовой пояс: UTC - 1


Вы не можете начинать темы
Вы не можете отвечать на сообщения
Вы не можете редактировать свои сообщения
Вы не можете удалять свои сообщения
Вы не можете голосовать в опросах
Вы не можете прикреплять файлы к сообщениям
Вы не можете скачивать файлы

!ВНИМАНИЕ!
Сайт не предоставляет электронные версии произведений, а занимается лишь коллекционированием и каталогизацией ссылок, присылаемых и публикуемых на форуме нашими читателями. Если вы являетесь правообладателем какого-либо представленного материала и не желаете, чтобы ссылка на него находилась в нашем каталоге, свяжитесь с нами, и мы незамедлительно удалим ее. Файлы для обмена на трекере предоставлены пользователями сайта, и администрация не несет ответственности за их содержание. Просьба не заливать файлы, защищенные авторскими правами, а также файлы нелегального содержания!