Ивановский Торрент трекер
Яндекс.Погода
 

[Цитировать]
HUNTER

Калейдоскоп ужасов 2 / Калейдоскоп ужасов II / Creepshow 2 / Dead and Undead / Old Chief Wood'nhead / The Hitch-hiker / The Raft
Страна: США
Жанр: ужасы, комедия
Год выпуска: 1987
Продолжительность: 01:25:36
Перевод: Профессиональный (многоголосый закадровый)
Перевод 2: Профессиональный (двухголосый закадровый)
Перевод 3: Авторский (одноголосый закадровый) Визгунов
Перевод 4: Авторский (одноголосый закадровый) Немахов
Перевод 5: Авторский (одноголосый закадровый) Дольский (поздний)
Перевод 6: Авторский (одноголосый закадровый) Дольский (ранний)
Перевод 7: Одноголосый закадровый Переводчик не опознан
Cубтитры: русские, английские
Оригинальная аудиодорожка: английский
Режиссер: Майкл Горник / Michael Gornick
В ролях: Доменик Джон, Том Савини, Джордж Кеннеди, Филип Дор, Молтби Наполеон, Тайрон Тонто, Дороти Ламур, Фрэнк Салседо, Холт МакКэллани, Дэвид Холбрук
Описание: Может ли фильм, собравший приличную кассу и моментально ставший культовым, обойтись без сиквела? Не обошёлся и «Калейдоскоп ужасов». Правда, на сей раз новеллы всего три, а в кресле режиссёра – не Джордж Ромеро, а всего лишь оператор первого фильма – Майкл Горник.
Итак, «Вождь Деревянная голова». Жили-были двое стариков, Рэй и Марта. Держали крохотный магазинчик в умирающим городе, основным населением которого являлись коренные американцы. Жили, не тужили, в любви и согласии. И пусть магазин не приносил прибыль, а большинство покупателей брали товар в кредит. Можно быть счастливым и не будучи миллионером. Но всё изменилось однажды вечером, когда в лавке появился индеец Сэм и двое его дружков. С одной-единственной целью: ради грабежа. Это был последний день жизни Рэя и Марты. Трое ублюдков ушли, оставив в магазине трупы невинных людей. Но ушли недалеко – на путь мести вступил Вождь деревянная голова. Статуя индейца, бывшая счастливым талисманом лавки Рэя и Марты. Статуя, обретшая жизнь...
Весьма недурственный эпизод, хотя и совершенно не «кинговский». Стариков по-настоящему жаль, а молодых отморозков хочется придушить собственными руками. Таким образом, актёрам – нижайший поклон. Кроме этого, в «... деревянной голове...» будет МНОГО крови. Ведь по сути это натуральный слэшер. 7/10
За номером 2 значится «Плот». Сюжет прост, однако данный эпизод без малейших сомнений – лучший во втором «Калейдоскопе...». Поздней осенью две парочки, прилично разогретые алкоголем, решаются на отчаянную авантюру – отправиться на безлюдное озеро и окунуться в ледяную воду. А в качестве временного пристанища сойдёт плот, находящийся посреди озера. По соседству с загадочным чёрным пятном, которое отрежет молодым людям путь назад... 10/10
«Автостопщик». Жизнь Энни вполне можно назвать удавшейся. У неё хороший муж – влиятельный адвокат, шикарный особняк и новый Мерседес S-класса. А ещё – «платный» любовник, обеспечивающий этой классической стерве до шести оргазмов за ночь. В одну из таких ночей она слишком задерживается у этого парня и... понимает, что опаздывает домой. Непоправимо опаздывает. Газ в пол, машину заносит и... Энни случайно сбивает чернокожего автостопщика. Насмерть. Выключает фары и – снова газ в пол. Совесть её особенно не терзает. Зато по прошествии определённого времени на дороге вновь появится чернокожий парень и скажет: «Спасибо, что подвезли, леди!». Он намерен расквитаться со своей убийцей, но Энни тоже не лыком шита...Также очень удачная новелла, не обошедшаяся без удачного чёрного юморка и крови – в особенности, радуют метаморфозы, происходящие с автостопщиком по мере того, как его «добивает» Энни. 8/10
Общий вердикт будет прост и короток: чуть менее удачная антология по сравнению с первым «Калейдоскопом...», однако всем жанровым поклонникам она 100-процентно придётся по душе.
Доп. информация: Диск из коллекции MORTICIANN большое спасибо.
Бонусы: Трейлеры.
Сэмпл: http://sendfile.su/1258844
Тип релиза: DVD9 (Custom)
Контейнер: DVD-Video
Видео: PAL 4:3 (720x576) VBR
Аудио: Russian (Dolby AC3, 192 Кбит/сек, 2 ch)
Аудио 2: Russian (Dolby AC3, 192 Кбит/сек, 2 ch)
Аудио 3: Russian (Dolby AC3, 448 Кбит/сек, 6 ch)
Аудио 4: Russian (Dolby AC3, 448 Кбит/сек, 6 ch)
Аудио 5: Russian (Dolby AC3, 448 Кбит/сек, 6 ch)
Аудио 6: Russian (Dolby AC3, 192 Кбит/сек, 2 ch)
Аудио 7: English (Dolby AC3, 448 Кбит/сек, 2 ch)
Аудио 8: Russian (Dolby AC3, 224 Кбит/сек, 2 ch)
Формат субтитров: prerendered (DVD/IDX+SUB)

DVDInfo

Title: Creepshow 2_1987
Size: 4.98 Gb ( 5 225 234,00 KBytes ) - DVD-9
Enabled regions: 1, 2, 3, 4, 5, 6, 7, 8
VTS_01 :
Play Length: 00:00:00
Video: PAL 4:3 (720x576) VBR
Audio:
English (Dolby AC3, 2 ch)
VTS_02 :
Play Length: 00:00:00
Video: PAL 4:3 (720x576) VBR
VTS_03 :
Play Length: 00:01:22+{00:00:00}
Video: PAL 4:3 (720x576) VBR
Audio:
English (Dolby AC3, 2 ch)
Subtitles:
Not specified
VTS_04 :
Play Length: 00:01:56+{00:00:00}
Video: PAL 4:3 (720x576) VBR
Audio:
English (Dolby AC3, 2 ch)
Subtitles:
Not specified
VTS_05 :
Play Length: 00:02:18+{00:00:00}
Video: PAL 4:3 (720x576) VBR
Audio:
English (Dolby AC3, 2 ch)
Subtitles:
Not specified
VTS_06 :
Play Length: 00:00:00
Video: PAL 4:3 (720x576) VBR
Audio:
English (Dolby AC3, 2 ch)
Subtitles:
Nederlands
VTS_07 :
Play Length: 00:01:31
Video: PAL 4:3 (720x576) VBR
Audio:
English (Dolby AC3, 2 ch)
Subtitles:
Nederlands
VTS_08 :
Play Length: 01:25:36
Video: PAL 4:3 (720x576) VBR
Audio:
Russian, AC3, 2/0 (L,R) ch, 192 kbps, Delay 0 mSec
Russian, AC3, 2/0 (L,R) ch, 192 kbps, Delay 0 mSec
Russian, AC3, 3/2 (L,C,R,SL,SR)+LFE ch, 448 kbps, Delay 0 mSec
Russian, AC3, 3/2 (L,C,R,SL,SR)+LFE ch, 448 kbps, Delay 0 mSec
Russian, AC3, 3/2 (L,C,R,SL,SR)+LFE ch, 448 kbps, Delay 0 mSec
Russian, AC3, 2/0 (L,R) ch, 192 kbps, Delay 0 mSec
English, AC3, 3/2 (L,C,R,SL,SR)+LFE ch, 448 kbps, Delay 0 mSec
Russian, AC3, 2/0 (L,R) ch, 224 kbps, Delay 0 mSec
Subtitles:
Russian
English
* Menus Information *
VIDEO_TS Menu
Video:
NTSC 4:3 (720x480) VBR
Auto Pan&Scan, Auto Letterboxed
English Language Unit :
Title Menu
VTS_01 Menu
Video:
PAL 4:3 (720x576) VBR
Audio:
Not specified (Dolby AC3, 2 ch)
English Language Unit :
Root Menu
Chapter (PTT) Menu
VTS_02 Menu
Video:
NTSC 4:3 (720x480) VBR
Auto Pan&Scan, Auto Letterboxed
English Language Unit :
Root Menu
VTS_03 Menu
Video:
NTSC 4:3 (720x480) VBR
Auto Pan&Scan, Auto Letterboxed
English Language Unit :
Root Menu
VTS_04 Menu
Video:
NTSC 4:3 (720x480) VBR
Auto Pan&Scan, Auto Letterboxed
English Language Unit :
Root Menu
VTS_05 Menu
Video:
NTSC 4:3 (720x480) VBR
Auto Pan&Scan, Auto Letterboxed
English Language Unit :
Root Menu
VTS_06 Menu
Video:
NTSC 4:3 (720x480) VBR
Auto Pan&Scan, Auto Letterboxed
English Language Unit :
Root Menu
VTS_07 Menu
Video:
NTSC 4:3 (720x480) VBR
Auto Pan&Scan, Auto Letterboxed
English Language Unit :
Root Menu
VTS_08 Menu
Video:
NTSC 4:3 (720x480) VBR
Auto Pan&Scan, Auto Letterboxed
English Language Unit :
Root Menu

MediaInfo

Общее
Полное имя : C:\1\DVD ГОТОВ\Creepshow 2_1987\VIDEO_TS\VTS_08_1.VOB
Формат : MPEG-PS
Размер файла : 1024 Мбайт
Продолжительность : 18 м.
Режим общего битрейта : Переменный
Общий поток : 7589 Кбит/сек
Видео
Идентификатор : 224 (0xE0)
Формат : MPEG Video
Версия формата : Version 2
Профиль формата : Main@Main
Параметр BVOP формата : Да
Параметр матрицы формата : Выборочная
Параметр GOP формата : M=3, N=15
Структура изображения : Frame
Продолжительность : 18 м.
Вид битрейта : Переменный
Битрейт : 4846 Кбит/сек
Максимальный битрейт : 8000 Кбит/сек
Ширина : 720 пикселей
Высота : 576 пикселей
Соотношение сторон : 4:3
Частота кадров : 25,000 кадров/сек
Стандарт вещания : PAL
Цветовое пространство : YUV
Субдискретизация насыщенности : 4:2:0
Битовая глубина : 8 бит
Тип развёртки : Чересстрочная
Порядок развёртки : Верхнее поле первое
Метод сжатия : С потерями
Бит/(Пиксели*Кадры) : 0.467
Временной код первого кадра : 01:00:00:00
Оригинал временного кода : Group of pictures header
GOP, открыто/закрыто : Закрыто
Размер потока : 654 Мбайт (64%)
Аудио #1
Идентификатор : 189 (0xBD)-128 (0x80)
Формат : AC-3
Формат/Информация : Audio Coding 3
Расширение режима : CM (complete main)
Параметр Endianness формата : Big
Режим смешивания : DVD-Video
Продолжительность : 18 м.
Вид битрейта : Постоянный
Битрейт : 192 Кбит/сек
Каналы : 2 канала
Расположение каналов : Front: L R
Частота : 48,0 КГц
Метод сжатия : С потерями
Размер потока : 25,9 Мбайт (3%)
Аудио #2
Идентификатор : 189 (0xBD)-129 (0x81)
Формат : AC-3
Формат/Информация : Audio Coding 3
Расширение режима : CM (complete main)
Параметр Endianness формата : Big
Режим смешивания : DVD-Video
Продолжительность : 18 м.
Вид битрейта : Постоянный
Битрейт : 192 Кбит/сек
Каналы : 2 канала
Расположение каналов : Front: L R
Частота : 48,0 КГц
Метод сжатия : С потерями
Размер потока : 25,9 Мбайт (3%)
Аудио #3
Идентификатор : 189 (0xBD)-130 (0x82)
Формат : AC-3
Формат/Информация : Audio Coding 3
Расширение режима : CM (complete main)
Параметр Endianness формата : Big
Режим смешивания : DVD-Video
Продолжительность : 18 м.
Вид битрейта : Постоянный
Битрейт : 448 Кбит/сек
Каналы : 6 каналов
Расположение каналов : Front: L C R, Side: L R, LFE
Частота : 48,0 КГц
Метод сжатия : С потерями
Размер потока : 60,4 Мбайт (6%)
Аудио #4
Идентификатор : 189 (0xBD)-131 (0x83)
Формат : AC-3
Формат/Информация : Audio Coding 3
Расширение режима : CM (complete main)
Параметр Endianness формата : Big
Режим смешивания : DVD-Video
Продолжительность : 18 м.
Вид битрейта : Постоянный
Битрейт : 448 Кбит/сек
Каналы : 6 каналов
Расположение каналов : Front: L C R, Side: L R, LFE
Частота : 48,0 КГц
Метод сжатия : С потерями
Размер потока : 60,4 Мбайт (6%)
Аудио #5
Идентификатор : 189 (0xBD)-132 (0x84)
Формат : AC-3
Формат/Информация : Audio Coding 3
Расширение режима : CM (complete main)
Параметр Endianness формата : Big
Режим смешивания : DVD-Video
Продолжительность : 18 м.
Вид битрейта : Постоянный
Битрейт : 448 Кбит/сек
Каналы : 6 каналов
Расположение каналов : Front: L C R, Side: L R, LFE
Частота : 48,0 КГц
Метод сжатия : С потерями
Размер потока : 60,4 Мбайт (6%)
Аудио #6
Идентификатор : 189 (0xBD)-133 (0x85)
Формат : AC-3
Формат/Информация : Audio Coding 3
Расширение режима : CM (complete main)
Параметр Endianness формата : Big
Режим смешивания : DVD-Video
Продолжительность : 18 м.
Вид битрейта : Постоянный
Битрейт : 192 Кбит/сек
Каналы : 2 канала
Расположение каналов : Front: L R
Частота : 48,0 КГц
Метод сжатия : С потерями
Размер потока : 25,9 Мбайт (3%)
Аудио #7
Идентификатор : 189 (0xBD)-134 (0x86)
Формат : AC-3
Формат/Информация : Audio Coding 3
Расширение режима : CM (complete main)
Параметр Endianness формата : Big
Режим смешивания : DVD-Video
Продолжительность : 18 м.
Вид битрейта : Постоянный
Битрейт : 448 Кбит/сек
Каналы : 6 каналов
Расположение каналов : Front: L C R, Side: L R, LFE
Частота : 48,0 КГц
Метод сжатия : С потерями
Размер потока : 60,4 Мбайт (6%)
Аудио #8
Идентификатор : 189 (0xBD)-135 (0x87)
Формат : AC-3
Формат/Информация : Audio Coding 3
Расширение режима : CM (complete main)
Параметр Endianness формата : Big
Режим смешивания : DVD-Video
Продолжительность : 18 м.
Вид битрейта : Постоянный
Битрейт : 224 Кбит/сек
Каналы : 2 канала
Расположение каналов : Front: L R
Частота : 48,0 КГц
Метод сжатия : С потерями
Размер потока : 30,2 Мбайт (3%)
Меню

Скриншоты меню



Показать сообщения:    

Текущее время: 16-Дек 01:43

Часовой пояс: UTC ± 0


Вы не можете начинать темы
Вы не можете отвечать на сообщения
Вы не можете редактировать свои сообщения
Вы не можете удалять свои сообщения
Вы не можете голосовать в опросах
Вы не можете прикреплять файлы к сообщениям
Вы не можете скачивать файлы

!ВНИМАНИЕ!
Сайт не предоставляет электронные версии произведений, а занимается лишь коллекционированием и каталогизацией ссылок, присылаемых и публикуемых на форуме нашими читателями. Если вы являетесь правообладателем какого-либо представленного материала и не желаете, чтобы ссылка на него находилась в нашем каталоге, свяжитесь с нами, и мы незамедлительно удалим ее. Файлы для обмена на трекере предоставлены пользователями сайта, и администрация не несет ответственности за их содержание. Просьба не заливать файлы, защищенные авторскими правами, а также файлы нелегального содержания!