Ивановский Торрент трекер
Яндекс.Погода
 

[Цитировать]
димитри37

Как я научился любить женщин / Das Gewisse Etwas der Frauen
Страна: Италия, Франция, Германия (ФРГ)
Жанр: комедия
Год выпуска: 1966
Продолжительность: 01:36:49
Перевод: Одноголосый закадровый перевод ССК+
Оригинальная аудиодорожка: нет
Режиссер: Лучиано Салче / Luciano Salce
В ролях:Мишель Мерсье / Michиle Mercier / – Франциска Маркус
Ромина Пауэр / Romina Power / – Ирене
Роберт Хоффман / Robert Hoffmann / – Роберто Монти
Цара Леандер / Zarah Leander / - тётя Ольга
Надя Тиллер / Nadja Tiller / – баронесса Лаура
Анита Экберг / Anita Ekberg / - Маргарет Джойс
Эльза Мартинелли / Elsa Martinelli / - гонщица
Орхидея Де Сантис / Orchidea de Santis / – Анджелина
Соня Романофф / Sonja Romanoff / - Моника
Эрика Шрамм / Erica Schramm / - Бетти
Джиджи Баллиста / Gigi Ballista / - сэр Арчи
Джанрико Тедески / Gianrico Tedeschi / - директор пансиона
Витторио Каприоли / Vittorio Caprioli / - плейбой
Сандра Мило / Sandra Milo / - Илде, жена директора
Патриция Перини / Patrizia Perini / - Анна Мария
Описание:Роберто Монти, привлекательный молодой человек, пытается познать тайну женщины. От жены директора пансиона, где он получает свой первый опыт, до кинозвезды, - пока, наконец, не найдет ту, которую искал всю жизнь. В фильме созвездие красавиц европейского кино 60-х, глаза разбегаются от такой красоты! Ну и, конечно, Мишель Мерсье...о-о-о, кель фам! нет слов, в самом расцвете, именно в те годы она снималась в "Анжелике" (на которую здесь даже сделана изящная шутка-аллюзия). В общем - милый, славный, глуповатый, но очень красивый фильм с легким эротическим подтекстом. Всем смотреть!
Качество видео: DVDRip
Формат видео: AVI
Видео: xvid, 688х416, 16:9, 25,000 кадров/сек, 1431 кбит/сек
Аудио: AC-3, 48,0 кГц, 192 кбит/сек, 2 канала

MediaInfo

Общее
Полное имя : F:\РАЗДАЧИ\Как я научился любить женщин 1966\Как я научился любить женщин2.avi
Формат : AVI
Формат/Информация : Audio Video Interleave
Размер файла : 1,10 Гбайт
Продолжительность : 1 ч. 36 м.
Общий поток : 1633 Кбит/сек
Название фильма : Avidemux
Программа кодирования : VirtualDubMod 1.5.10.2 (build 2540/release)
Библиотека кодирования : VirtualDubMod build 2540/release
Видео
Идентификатор : 0
Формат : xvid
Идентификатор кодека : xvid
Продолжительность : 1 ч. 36 м.
Битрейт : 1431 Кбит/сек
Ширина : 688 пикселей
Высота : 416 пикселей
Соотношение сторон : 16:9
Частота кадров : 25,000 кадров/сек
Бит/(Пиксели*Кадры) : 0.200
Размер потока : 991 Мбайт (88%)
Аудио
Идентификатор : 1
Формат : AC-3
Формат/Информация : Audio Coding 3
Расширение режима : CM (complete main)
Параметр Endianness формата : Big
Идентификатор кодека : 2000
Продолжительность : 1 ч. 36 м.
Вид битрейта : Постоянный
Битрейт : 192 Кбит/сек
Каналы : 2 канала
Расположение каналов : Front: L R
Частота : 48,0 КГц
Битовая глубина : 16 бит
Метод сжатия : С потерями
Размер потока : 133 Мбайт (12%)
Выравнивание : Разделение по промежуткам
Продолжительность промежутка : 40 мс. (1,00 видеокадр)
Время предзагрузки промежутка : 500 мс.

Скриншот c названием фильма

Скриншоты

-
Показать сообщения:    

Текущее время: 17-Окт 14:18

Часовой пояс: UTC - 1


Вы не можете начинать темы
Вы не можете отвечать на сообщения
Вы не можете редактировать свои сообщения
Вы не можете удалять свои сообщения
Вы не можете голосовать в опросах
Вы не можете прикреплять файлы к сообщениям
Вы не можете скачивать файлы

!ВНИМАНИЕ!
Сайт не предоставляет электронные версии произведений, а занимается лишь коллекционированием и каталогизацией ссылок, присылаемых и публикуемых на форуме нашими читателями. Если вы являетесь правообладателем какого-либо представленного материала и не желаете, чтобы ссылка на него находилась в нашем каталоге, свяжитесь с нами, и мы незамедлительно удалим ее. Файлы для обмена на трекере предоставлены пользователями сайта, и администрация не несет ответственности за их содержание. Просьба не заливать файлы, защищенные авторскими правами, а также файлы нелегального содержания!