Как это бывает в Квинс / Так бывает в Квинсе / Бруклинская рокировка / Логика Квинса / Queens Logic (Стив Рэш / Steve Rash) [1991, США, комедия, драма, DVD9 (Custom)] AVO (Михалёв) + MVO + Original Eng :: Ивановский Торрент трекер
Важное объявление!
У Нас Все раздачи мультитрекерные, при нуле пиров в релизах, можете смело вставать на закачку!
Статистика раздачи
Размер:     |    Зарегистрирован:     |    Скачан:     |   
Нет
 
     
 
 
Автор Сообщение

HUNTER

Стаж:
4 года 11 месяцев
Сообщений:
66112

Репутация: 101

[+] [-]
Вне форума [Профиль] [ЛС]

Как это бывает в Квинс / Так бывает в Квинсе / Бруклинская рокировка / Логика Квинса / Queens Logic
Страна: США
Жанр: комедия, драма
Год выпуска: 1991
Продолжительность: 01:53:13
Перевод: Авторский (одноголосый закадровый) Михалёв
Перевод 2: Профессиональный (многоголосый закадровый)
Cубтитры: нет
Оригинальная аудиодорожка: английский
Режиссер: Стив Рэш / Steve Rash
В ролях: Кевин Бэйкон, Линда Фиорентино, Джон Малкович, Джо Мантенья, Кен Олин, Том Уэйтс, Хлои Уэбб, Джейми Ли Кёртис
Описание: Возможно, точнее было бы перевести название фильма как "Закономерности Куинса", потому что герои понимают друг друга с полувзгляда, и никто из них не совершает никаких экстраординарных неожиданных поступков, и выросли они в Куинсе, одном из районов Нью-Йорка, научившись моментально распознавать чужака... Их было шестеро друзей: Эл, Дэннис, Рэй, Винни, Карла и Пэтришиа. Прошли годы, и мы, зрители, становимся свидетелями того, как приходят к переосмыслению прожитых лет супруги Эл и Карла, оказавшиеся на грани развода, и решившие пожениться Рэй и Пэтришиа.
Доп. информация: За основу был взят диск из собственной колекции с профф переводом.Добавлена озвучка Михалёва с этой раздачи http://rutracker.org/forum/viewtopic.php?t=3273390 автору большое спасибо.
За синхронизацию огромное спасибо Нордер.
При пересборе двд были использованы программы:
PgcDemux - разделение компонентов диска на файлы
Muxman - мультиплексирование и авторинг DVD
VobBlanker - реавторинг DVD

Скрин завершения проекта

Сэмпл: http://sendfile.su/1108589
Тип релиза: DVD9 (Custom)
Контейнер: DVD-Video
Видео: Russian (Dolby AC3, 192 Кбит/сек, 2 ch)
Аудио: Russian (Dolby AC3, 192 Кбит/сек, 2 ch)
Аудио 2: English (Dolby AC3, 192 Кбит/сек, 2 ch)

DVDInfo

Size: 4.65 Gb ( 4 870 714 KBytes ) - DVD-9
Enabled regions: 1, 2, 3, 4, 5, 6, 7, 8
VTS_01 :
Play Length: 01:53:13
Video: NTSC 4:3 (720x480) VBR
Audio:
Russian (Dolby AC3, 2 ch)
Russian (Dolby AC3, 2 ch)
English (Dolby AC3, 2 ch)
VTS_02 :
Play Length: 00:00:05
Video: NTSC 4:3 (720x480) VBR
Audio:
Not specified (Dolby AC3, 1 ch)
VTS_03 :
Play Length: 00:00:13
Video: NTSC 4:3 (720x480) VBR
Audio:
English (Dolby AC3, 2 ch)
Menu Video:
NTSC 4:3 (720x480) VBR
Menu English Language Unit :
Root Menu

MediaInfo

Общее
Полное имя : F:\Queens Logic_1991\VIDEO_TS\VTS_01_1.VOB
Формат : MPEG-PS
Размер файла : 1024 Мбайт
Продолжительность : 26 м.
Режим общего битрейта : Переменный
Общий поток : 5479 Кбит/сек
Видео
Идентификатор : 224 (0xE0)
Формат : MPEG Video
Версия формата : Version 2
Профиль формата : Main@Main
Параметр BVOP формата : Да
Параметр матрицы формата : Выборочная
Продолжительность : 26 м.
Вид битрейта : Переменный
Битрейт : 4800 Кбит/сек
Ширина : 720 пикселей
Высота : 480 пикселей
Соотношение сторон : 4:3
Частота кадров : 29,970 кадров/сек
Стандарт вещания : NTSC
Цветовое пространство : YUV
Субдискретизация насыщенности : 4:2:0
Битовая глубина : 8 бит
Метод сжатия : С потерями
Бит/(Пиксели*Кадры) : 0.463
Размер потока : 896 Мбайт (87%)
Аудио #1
Идентификатор : 189 (0xBD)-128 (0x80)
Формат : AC-3
Формат/Информация : Audio Coding 3
Расширение режима : CM (complete main)
Параметр Endianness формата : Big
Режим смешивания : DVD-Video
Продолжительность : 26 м.
Вид битрейта : Постоянный
Битрейт : 192 Кбит/сек
Каналы : 2 канала
Расположение каналов : Front: L R
Частота : 48,0 КГц
Битовая глубина : 16 бит
Метод сжатия : С потерями
Задержка видео : -66 мс.
Размер потока : 35,9 Мбайт (4%)
Аудио #2
Идентификатор : 189 (0xBD)-129 (0x81)
Формат : AC-3
Формат/Информация : Audio Coding 3
Расширение режима : CM (complete main)
Параметр Endianness формата : Big
Режим смешивания : DVD-Video
Продолжительность : 26 м.
Вид битрейта : Постоянный
Битрейт : 192 Кбит/сек
Каналы : 2 канала
Расположение каналов : Front: L R
Частота : 48,0 КГц
Битовая глубина : 16 бит
Метод сжатия : С потерями
Задержка видео : -66 мс.
Размер потока : 35,9 Мбайт (4%)
Аудио #3
Идентификатор : 189 (0xBD)-130 (0x82)
Формат : AC-3
Формат/Информация : Audio Coding 3
Расширение режима : CM (complete main)
Параметр Endianness формата : Big
Режим смешивания : DVD-Video
Продолжительность : 26 м.
Вид битрейта : Постоянный
Битрейт : 192 Кбит/сек
Каналы : 2 канала
Расположение каналов : Front: L R
Частота : 48,0 КГц
Битовая глубина : 16 бит
Метод сжатия : С потерями
Задержка видео : -66 мс.
Размер потока : 35,9 Мбайт (4%)
Меню

Постер, обложка и блин

Скриншоты меню


_________________
Показать сообщения:    

Текущее время: Сегодня 04:01

Часовой пояс: GMT



Вы не можете начинать темы
Вы не можете отвечать на сообщения
Вы не можете редактировать свои сообщения
Вы не можете удалять свои сообщения
Вы не можете голосовать в опросах
Вы не можете прикреплять файлы к сообщениям
Вы не можете скачивать файлы