Ивановский Торрент трекер
Яндекс.Погода
 

[Цитировать]
HUNTER

Как устроена Земля
Earth Machine
7.84 / 8.10- Дата/Год выпуска: 19.07.2011
Страна: США / BBC
Жанр: Документальный
Продолжительность: ~2х 00:50:00
Перевод: Профессиональный |Двухголосый закадровый (студия "СВ-Дубль" по заказу "ГТРК Культура")|
Русские субтитры: нет
Оригинальная аудиодорожка: нет-Режиссер: Ник Шулинджин-Джордан, Майк Сли / Nick Shoolingin-Jordan, Mike Slee-Описание: Поверхность нашей планеты может показаться нам статичной, но, механизмы, происходящие в центре Земли открывают перед нами совершенно другую картину. Каждый день, на Земле происходит около пятидесяти крупных землетрясений и в среднем двенадцать извержений мощных вулканов. Каждую секунду земля под нашими ногами движется и меняется. Путешествуя к центру Земли мы собираемся показать вам как геологические процессы в сердце планеты влияют на нашу жизнь и осушение океанов.- -Источник: -Качество: BDRip
Формат: AVI
Видео: 720x400 (16:9), 25,000 fps, XviD build 65, ~2205 kbps avg, 0.30 bit/pixel
Аудио: 48.0 kHz, AC3 Dolby Digital, 2/0 (L,R) ch, ~192.00 kbps avg

Список выпусков/серий

1. Суша / Land / Land
Механизм планеты Земля находится в непрестанном движении под воздействием сил, бушующих в сердце планеты. Этот процесс начался 4 миллиарда 600 миллионов лет назад, когда Земля только сформировалась. В то время она была шаром раскаленной лавы. За миллионы лет она остыла, и на ней образовалась твердая кора. Через трещины в этой коре прорывался новый вид лавы. Она была легче и формировала плиты на поверхности коры, которые потом стали сушей.
Продолжительность: 00:50:03-2. Океан / Ocean / Unter wasser
Океаны занимают три четверти поверхности нашей планеты. Однако девяносто процентов морского дна никто никогда не видел. Многими масштабнейшими геологическими процессами движут силы, скрытые глубоко под толщей воды. Под морским дном находится неизведанная территория.
Продолжительность: 00:48:53

MediaInfo

ОбщееПолное имя : A:\Фильмы\Как устроена Земля.BDRip.avi\Earth.Machine.E01.Land.aviФормат : AVIФормат/Информация : Audio Video InterleaveРазмер файла : 862 МбайтПродолжительность : 50 м.Общий поток : 2407 Кбит/секПрограмма кодирования : VirtualDubMod 1.5.10.3 | www.virtualdub-fr.org || (build 2550/release)Библиотека кодирования : VirtualDubMod build 2550/release
ВидеоИдентификатор : 0Формат : MPEG-4 VisualПрофиль формата : Advanced Simple@L5Параметр BVOP формата : 2Параметр QPel формата : НетПараметр GMC формата : Без точки переходаПараметр матрицы формата : Default (H.263)Идентификатор кодека : XVIDИдентификатор кодека/Подсказка : XviDПродолжительность : 50 м.Битрейт : 2205 Кбит/секШирина : 720 пикселейВысота : 400 пикселейСоотношение сторон : 16:9Частота кадров : 25,000 кадров/секЦветовое пространство : YUVСубдискретизация насыщенности : 4:2:0Битовая глубина : 8 битТип развёртки : ПрогрессивнаяМетод сжатия : С потерямиБит/(Пиксели*Кадры) : 0.306Размер потока : 790 Мбайт (92%)Библиотека кодирования : XviD 65
АудиоИдентификатор : 1Формат : AC-3Формат/Информация : Audio Coding 3Расширение режима : CM (complete main)Параметр Endianness формата : BigИдентификатор кодека : 2000Продолжительность : 50 м.Вид битрейта : ПостоянныйБитрейт : 192 Кбит/секКаналы : 2 каналаРасположение каналов : Front: L RЧастота : 48,0 КГцБитовая глубина : 16 битМетод сжатия : С потерямиРазмер потока : 68,7 Мбайт (8%)Выравнивание : Разделение по промежуткамПродолжительность промежутка : 40 мс. (1,00 видеокадр)Время предзагрузки промежутка : 500 мс.
ОбщееПолное имя : A:\Фильмы\Как устроена Земля.BDRip.avi\Earth.Machine.E02.Ocean.aviФормат : AVIФормат/Информация : Audio Video InterleaveРазмер файла : 841 МбайтПродолжительность : 48 м.Общий поток : 2405 Кбит/секПрограмма кодирования : VirtualDubMod 1.5.10.3 | www.virtualdub-fr.org || (build 2550/release)Библиотека кодирования : VirtualDubMod build 2550/release
ВидеоИдентификатор : 0Формат : MPEG-4 VisualПрофиль формата : Advanced Simple@L5Параметр BVOP формата : 2Параметр QPel формата : НетПараметр GMC формата : Без точки переходаПараметр матрицы формата : Default (H.263)Идентификатор кодека : XVIDИдентификатор кодека/Подсказка : XviDПродолжительность : 48 м.Битрейт : 2203 Кбит/секШирина : 720 пикселейВысота : 400 пикселейСоотношение сторон : 16:9Частота кадров : 25,000 кадров/секЦветовое пространство : YUVСубдискретизация насыщенности : 4:2:0Битовая глубина : 8 битТип развёртки : ПрогрессивнаяМетод сжатия : С потерямиБит/(Пиксели*Кадры) : 0.306Размер потока : 770 Мбайт (92%)Библиотека кодирования : XviD 65
АудиоИдентификатор : 1Формат : AC-3Формат/Информация : Audio Coding 3Расширение режима : CM (complete main)Параметр Endianness формата : BigИдентификатор кодека : 2000Продолжительность : 48 м.Вид битрейта : ПостоянныйБитрейт : 192 Кбит/секКаналы : 2 каналаРасположение каналов : Front: L RЧастота : 48,0 КГцБитовая глубина : 16 битМетод сжатия : С потерямиРазмер потока : 67,1 Мбайт (8%)Выравнивание : Разделение по промежуткамПродолжительность промежутка : 40 мс. (1,00 видеокадр)Время предзагрузки промежутка : 500 мс.

Скриншоты




Показать сообщения:    

Текущее время: 16-Дек 11:13

Часовой пояс: UTC ± 0


Вы не можете начинать темы
Вы не можете отвечать на сообщения
Вы не можете редактировать свои сообщения
Вы не можете удалять свои сообщения
Вы не можете голосовать в опросах
Вы не можете прикреплять файлы к сообщениям
Вы не можете скачивать файлы

!ВНИМАНИЕ!
Сайт не предоставляет электронные версии произведений, а занимается лишь коллекционированием и каталогизацией ссылок, присылаемых и публикуемых на форуме нашими читателями. Если вы являетесь правообладателем какого-либо представленного материала и не желаете, чтобы ссылка на него находилась в нашем каталоге, свяжитесь с нами, и мы незамедлительно удалим ее. Файлы для обмена на трекере предоставлены пользователями сайта, и администрация не несет ответственности за их содержание. Просьба не заливать файлы, защищенные авторскими правами, а также файлы нелегального содержания!