Как сохранить зрение ребенка: 10 простых комплексов (Игорь Пелинский)[2009, Учебные видео для детей и родителей, DVDRip] :: Ивановский Торрент трекер
Важное объявление!
У Нас Все раздачи мультитрекерные, при нуле пиров в релизах, можете смело вставать на закачку!
Статистика раздачи
Размер:     |    Зарегистрирован:     |    Скачан:     |   
Нет
 
     
 
 
Автор Сообщение

HUNTER

Стаж:
4 года 11 месяцев
Сообщений:
66077

Репутация: 101

[+] [-]
Вне форума [Профиль] [ЛС]


Как сохранить зрение ребенка: 10 простых комплексов-Год выпуска: 2009
Страна: Россия
Сайт производителя: отсутствуeт
Тематика: Учебные видео для детей и родителей
Тип материала: Обучающее видео
Продолжительность: 00:55:20
Автор: Игорь Пелинский
Язык: Русский
Субтитры: отсутствуют-Описание: По статистике у каждого третьего ребенка проблемы со зрением. Каких бы успехов не достигла современная офтальмология, не стоит забывать о профилактике по сохранению зрения. Существует много простых, но действенных упражнений. Вы устали, ваши глаза покраснели, ваша работоспособность неуклонно падает? Тогда эти упражнения для Вас. Начните и не пожалеете! При напряженной зрительной работе отдых нужен глазам уже через 30 — 60 мин., в течение 3 — 7 мин. В состав, предложенныж нами, комплексов входят упражнения, которые способствуют: активизации циркуляции крови в глазных тканях, укреплению глазных мышц, улучшению бинокулярного зрения, стимуляции нервных окончаний, снятию умственного напряжения, и дают прекрасный отдых зрению. Ослабление зрения можно предупредить, а вот вернуть потерянную зоркость — практически невозможно. Поэтому, пока не поздно, позаботьтесь о своих глазах! Данные комплексы упражнений могут быть использованы педагогами дошкольных учреждений, учителями начальных классов, педагогами дополнительного образования, родителями во время занятий с детьми.-Качество: DVDRip
Формат: AVI
Видео кодек: XviD
Аудио кодек: MP3
Видео: 640x480 (1.33:1), 25 fps, XviD build 46 ~1612 kbps avg, 0.21 bit/pixel
Аудио: 48 kHz, MPEG Layer 3, 2 ch, ~160.00 kbps avg-

Содержание

В комплексы входят следующие упражнения:
1. Массаж глаз
2. Поворот глаз
3. Вращение глаз
4. Расслабление глазных мышц
5. Тренировка аккомодации

MediaInfo

Код: copyText_writeLink('this.parentNode.parentNode.nextSibling.nextSibling'); Общее
Полное имя : D:\обуч\Загрузкиииииииииии\zrenie_rebenka_[tfile.ru]\Как сохранить зрение ребенка.avi
Формат : AVI
Формат/Информация : Audio Video Interleave
Размер файла : 644 Мбайт
Продолжительность : 55 м.
Общий поток : 1626 Кбит/сек
Видео
Идентификатор : 0
Формат : MPEG-4 Visual
Профиль формата : Simple@L3
Параметр BVOP формата : Нет
Параметр QPel формата : Нет
Параметр GMC формата : Без точки перехода
Параметр матрицы формата : Default (H.263)
Идентификатор кодека : XVID
Идентификатор кодека/Подсказка : XviD
Продолжительность : 55 м.
Продолжительность оригинала : 55 м.
Битрейт : 1453 Кбит/сек
Ширина : 640 пикселей
Высота : 480 пикселей
Соотношение сторон : 4:3
Частота кадров : 25,000 кадров/сек
Цветовое пространство : YUV
Субдискретизация насыщенности : 4:2:0
Битовая глубина : 8 бит
Тип развёртки : Прогрессивная
Метод сжатия : С потерями
Бит/(Пиксели*Кадры) : 0.189
Размер потока : 575 Мбайт (89%)
Библиотека кодирования : XviD 1.1.2 (UTC 2006-11-01)
Аудио
Идентификатор : 1
Формат : MPEG Audio
Версия формата : Version 1
Профиль формата : Layer 3
Режим : Joint stereo
Расширение режима : MS Stereo
Идентификатор кодека : 55
Идентификатор кодека/Подсказка : MP3
Продолжительность : 55 м.
Вид битрейта : Постоянный
Битрейт : 160 Кбит/сек
Каналы : 2 канала
Частота : 48,0 КГц
Метод сжатия : С потерями
Размер потока : 63,3 Мбайт (10%)
Выравнивание : Разделение по промежуткам
Продолжительность промежутка : 24 мс. (0,60 видеокадр)

Скриншоты

-

_________________
Показать сообщения:    

Текущее время: Сегодня 16:14

Часовой пояс: GMT



Вы не можете начинать темы
Вы не можете отвечать на сообщения
Вы не можете редактировать свои сообщения
Вы не можете удалять свои сообщения
Вы не можете голосовать в опросах
Вы не можете прикреплять файлы к сообщениям
Вы не можете скачивать файлы